<?xml version="1.0" standalone="no"?>
<!DOCTYPE svg PUBLIC "-//W3C//DTD SVG 1.1//EN" "http://www.w3.org/Graphics/SVG/1.1/DTD/svg11.dtd" >
<svg xmlns="http://www.w3.org/2000/svg">
<metadata>Generated by IcoMoon</metadata>
<defs>
<font id="fables" horiz-adv-x="1024">
<font-face units-per-em="1024" ascent="960" descent="-64" />
<missing-glyph horiz-adv-x="1024" />
<glyph unicode="&#x20;" horiz-adv-x="512" d="" />
<glyph unicode="&#xe900;" glyph-name="arrow-down" horiz-adv-x="1699" d="M849.483 331.234l620.504 607.015c12.781 12.617 30.351 20.41 49.741 20.41s36.96-7.793 49.749-20.417l-0.008 0.007 108.757-108.757c13.122-12.864 21.256-30.775 21.256-50.585s-8.134-37.72-21.244-50.573l-0.012-0.011-778.665-771.583c-12.816-12.817-30.521-20.745-50.079-20.745s-37.263 7.928-50.079 20.745v0l-778.496 773.438c-13.122 12.864-21.256 30.775-21.256 50.585s8.134 37.72 21.244 50.573l0.012 0.011 108.757 108.757c12.781 12.617 30.351 20.41 49.741 20.41s36.96-7.793 49.749-20.417l-0.008 0.007z" />
<glyph unicode="&#xe901;" glyph-name="arrow-left" horiz-adv-x="566" d="M0.094 447.953l26.653-28.155 484.080-483.798 55.653 55.653-456.3 456.3 456.3 456.3-55.653 55.653-484.173-484.173z" />
<glyph unicode="&#xe902;" glyph-name="arrow-next" horiz-adv-x="566" d="M566.48 447.953l-26.653 28.155-484.080 483.798-55.653-55.653 456.3-456.3-456.3-456.3 55.653-55.653 484.173 484.173z" />
<glyph unicode="&#xe903;" glyph-name="arrow-right" horiz-adv-x="566" d="M566.48 447.953l-26.653 28.155-484.080 483.798-55.653-55.653 456.3-456.3-456.3-456.3 55.653-55.653 484.173 484.173z" />
<glyph unicode="&#xe904;" glyph-name="cart" horiz-adv-x="1267" d="M51.179 960c-28.289 0-51.221-22.932-51.221-51.221s22.932-51.221 51.221-51.221v0h113.656l134.397-537.589c11.302-44.457 50.972-76.816 98.201-76.816 0.365 0 0.729 0.002 1.093 0.006h638.543c46.583 0.072 85.779 31.614 97.471 74.499l0.165 0.709 132.795 488.013h-107.501l-122.931-460.779h-638.683l-134.397 537.589c-11.302 44.456-50.973 76.815-98.201 76.815-0.335 0-0.67-0.002-1.004-0.005h0.051zM972.821 243.326c-84.843 0-153.621-68.778-153.621-153.621s68.778-153.621 153.621-153.621c84.843 0 153.621 68.778 153.621 153.621v0c-0.428 84.67-68.951 153.193-153.58 153.621h-0.041zM512.042 243.326c-84.843 0-153.621-68.778-153.621-153.621s68.778-153.621 153.621-153.621c84.843 0 153.621 68.778 153.621 153.621v0c-0.428 84.67-68.951 153.193-153.58 153.621h-0.041zM665.579 960v-153.621h-153.537v-102.442h153.621v-153.621h102.442v153.705h153.621v102.358h-153.705v153.621zM511.958 140.8c28.265 0 51.179-22.914 51.179-51.179s-22.914-51.179-51.179-51.179c-28.265 0-51.179 22.914-51.179 51.179v0c-0.002 0.177-0.003 0.386-0.003 0.595 0 27.939 22.649 50.589 50.589 50.589 0.238 0 0.476-0.002 0.714-0.005h-0.036zM972.737 140.8c28.265 0 51.179-22.914 51.179-51.179s-22.914-51.179-51.179-51.179c-28.265 0-51.179 22.914-51.179 51.179v0c-0.002 0.177-0.003 0.386-0.003 0.595 0 27.939 22.649 50.589 50.589 50.589 0.238 0 0.476-0.002 0.714-0.005h-0.036z" />
<glyph unicode="&#xe905;" glyph-name="cart-icon" d="M0 960v-102.415h116.809l134.413-399.98-76.836-102.415h-1.605c-12.057-17.035-19.273-38.239-19.273-61.128 0-17.371 4.156-33.772 11.528-48.261l-0.279 0.605c17.816-32.631 51.879-54.401 91.028-54.417h665.851v102.415h-665.848s-0.602 0.802 0 1.605l76.786 100.81h481.481c1.102-0.096 2.384-0.15 3.679-0.15 19.704 0 36.459 12.625 42.618 30.227l0.096 0.317 158.387 358.403c2.899 6.199 4.591 13.46 4.591 21.117 0 27.938-22.528 50.615-50.41 50.855h-749.027l-22.369 67.307-11.034 35.108zM255.787 140.78c-56.562 0-102.415-45.853-102.415-102.415s45.853-102.415 102.415-102.415c56.562 0 102.415 45.853 102.415 102.415v0c0 0.015 0 0.033 0 0.050 0 56.535-45.83 102.365-102.365 102.365-0.018 0-0.035 0-0.053 0h0.003zM818.969 140.78c-56.562 0-102.415-45.853-102.415-102.415s45.853-102.415 102.415-102.415c56.562 0 102.415 45.853 102.415 102.415v0c0 0.015 0 0.033 0 0.050 0 56.464-45.716 102.251-102.153 102.365h-0.011z" />
<glyph unicode="&#xe906;" glyph-name="comment" horiz-adv-x="1027" d="M517.307 960c-278.571 0-510.001-201.451-510.001-454.866 2.831-121.026 55.897-229.122 139.073-304.654l0.35-0.313c-3.876-41.803-25.896-77.785-58.007-100.399l-0.437-0.292c-17.23-14.473-36.251-27.981-53.481-44.797-20.304-17.276-33.479-42.403-34.796-70.629l-0.008-0.219c0-0.005 0-0.012 0-0.018 0-18.436 12.545-33.941 29.565-38.446l0.277-0.062c24.128-5.334 51.841-8.39 80.267-8.39 53.594 0 104.652 10.862 151.091 30.505l-2.547-0.957c63.755 23.942 118.87 55.432 167.938 94.233l-1.292-0.986c27.455-5.161 59.231-8.305 91.672-8.681l0.335-0.003c278.571 0 510.001 200.348 510.001 453.901s-231.43 455.073-510.001 455.073zM517.307 880.398c240.597 0 430.262-170.644 430.262-375.54s-189.459-374.3-430.262-374.3c-1.553-0.018-3.387-0.028-5.224-0.028-30.235 0-59.823 2.769-88.525 8.066l2.982-0.457c-2.729 0.673-5.861 1.059-9.084 1.059-9.283 0-17.818-3.203-24.56-8.564l0.081 0.062c-45.849-36.866-98.986-67.186-156.551-88.343l-3.893-1.252c-34.654-12.59-74.689-20.654-116.362-22.372l-0.8-0.026c8.408 6.892 14.955 11.509 24.88 19.918 52.329 39.419 86.392 100.669 88.553 169.958l0.008 0.341c-0.003 11.926-5.328 22.607-13.73 29.797l-0.053 0.045c-77.209 63.792-126.467 159.042-127.98 265.841l-0.003 0.256c0 204.896 189.665 375.54 430.262 375.54z" />
<glyph unicode="&#xe907;" glyph-name="commingSoon" horiz-adv-x="811" d="M0 960v-85.333c0.195-35.265 28.73-63.8 63.976-63.995h42.686v-143.339c0-0.061 0-0.133 0-0.205 0-66.319 33.576-124.796 84.655-159.36l0.678-0.433 89.333-59.335-89.333-59.335c-51.758-34.996-85.333-93.473-85.333-159.792 0-0.072 0-0.144 0-0.216v0.011-143.329h-42.667c-35.268-0.195-63.806-28.736-63.995-63.987v-85.351h810.667v85.333c-0.195 35.265-28.73 63.8-63.976 63.995h-42.696v143.339c0 0.061 0 0.133 0 0.205 0 66.319-33.576 124.796-84.655 159.36l-0.678 0.433-89.333 59.335 89.333 59.335c51.758 34.996 85.333 93.473 85.333 159.792 0 0.072 0 0.144 0 0.216v-0.011 143.339h42.667c35.269 0.189 63.81 28.726 64.005 63.976v85.352zM42.667 917.333h725.333v-42.667c0.002-0.116 0.004-0.254 0.004-0.391 0-11.565-9.375-20.941-20.941-20.941-0.138 0-0.275 0.001-0.412 0.004h-682.646c-0.119-0.002-0.26-0.004-0.402-0.004-11.565 0-20.941 9.375-20.941 20.941 0 0.138 0.001 0.275 0.004 0.412v-0.021zM149.328 810.672h512v-143.339c-0.040-51.544-26.258-96.955-66.076-123.661l-0.536-0.339-116.053-77.334-26.668-17.999 26.668-17.999 116.053-77.334c40.361-27.048 66.592-72.453 66.665-123.989v-143.34h-43.975c-15.36 173.494-212.077 239.331-212.077 239.331s-196.581-69.167-211.993-239.331h-43.975v143.329c0.068 51.544 26.291 96.949 66.107 123.661l0.537 0.339 116.001 77.334 26.658 17.999-26.668 17.999-115.991 77.334c-40.375 27.035-66.612 72.448-66.665 123.992v0.008zM63.995 42.672h682.667c0.12 0.002 0.26 0.004 0.402 0.004 11.565 0 20.941-9.375 20.941-20.941 0-0.141-0.001-0.282-0.004-0.423v0.021-42.667h-725.333v42.667c-0.002 0.119-0.004 0.26-0.004 0.402 0 11.565 9.375 20.941 20.941 20.941 0.138 0 0.275-0.001 0.412-0.004h-0.021z" />
<glyph unicode="&#xe908;" glyph-name="compare" horiz-adv-x="853" d="M853.306 192.014h-128.007v767.986h-85.319v-767.986h-128.007l170.639-226.649zM341.333 703.986l-170.805 226.704-170.639-226.649h128.118v-768.042h85.319v767.986z" />
<glyph unicode="&#xe909;" glyph-name="data" horiz-adv-x="1109" d="M341.333 960c-0.158 0-0.345 0-0.533 0-188.199 0-340.764-152.565-340.764-340.764 0-125.567 67.916-235.271 169.017-294.383l1.613-0.871v-387.982h938.667v853.333h-213.333v42.667h-85.333v-42.667h-174.649c-59.88 102.568-169.331 170.442-294.652 170.667h-0.032zM341.333 874.667c141.385 0 256-114.615 256-256s-114.615-256-256-256c-141.385 0-256 114.615-256 256v0c0 0.169-0.001 0.369-0.001 0.57 0 141.071 114.36 255.431 255.431 255.431 0.2 0 0.4 0 0.6-0.001h-0.031zM298.667 789.333v-194.631l-73.316-73.387 61.369-61.298 85.333 85.333 12.018 13.298v230.684zM670.649 704h140.018v-42.667h85.333v42.667h128v-85.333h-341.333c-0.355 30.501-4.719 59.836-12.589 87.7l0.571-2.366zM670.649 533.333h353.351v-512h-768v268.018c25.497-7.297 54.832-11.662 85.13-12.016l0.203-0.002c157.707 0.562 290.167 107.991 328.779 253.618l0.537 2.382zM682.667 362.667v-85.333h85.333v85.333zM853.333 362.667v-85.333h85.333v85.333zM341.333 192v-85.333h85.333v85.333zM512 192v-85.333h85.333v85.333zM682.667 192v-85.333h85.333v85.333zM853.333 192v-85.333h85.333v85.333z" />
<glyph unicode="&#xe90a;" glyph-name="development-icon" horiz-adv-x="790" d="M118.384 960c-65.274-0.267-118.117-53.11-118.384-118.358v-434.027h78.912v434.001c-0.002 0.151-0.003 0.329-0.003 0.507 0 21.521 17.446 38.968 38.968 38.968 0.178 0 0.356-0.001 0.534-0.004h355.062v-236.737h236.737v-238.627h78.912v294.385l-259.796 259.89zM552.385 825.266l102.003-102.003h-102.003zM395.16 425.476l-98.632-473.473 77.715-15.971 98.632 473.473zM184.948 385.721l-179.718-185.263 179.718-185.263 56.703 54.845-126.354 130.418 126.354 130.418zM610.223 385.721l-56.703-54.845 126.449-130.418-126.386-130.386 56.703-54.845 179.718 185.263z" />
<glyph unicode="&#xe90b;" glyph-name="down-arrow" horiz-adv-x="1789" d="M132.283 960l-132.283-132.283 828.351-828.351 66.237-63.366 66.237 63.366 828.351 828.351-132.283 132.283-762.305-762.113z" />
<glyph unicode="&#xe90c;" glyph-name="user" d="M512 960c-141.385 0-256-114.615-256-256s114.615-256 256-256c141.385 0 256 114.615 256 256v0c0 141.385-114.615 256-256 256v0zM512 320c-390.485 0-512-256-512-256v-128h1024v128s-121.515 256-512 256z" />
<glyph unicode="&#xe90d;" glyph-name="eye" horiz-adv-x="1719" d="M859.611 960c-5.742 0.125-12.509 0.196-19.293 0.196-354.667 0-663.813-194.896-826.182-483.432l-2.458-4.751-11.677-24.013 11.677-24.013c164.828-293.288 473.974-488.184 828.64-488.184 6.784 0 13.552 0.071 20.302 0.213l-1.009-0.017c5.742-0.125 12.509-0.196 19.293-0.196 354.667 0 663.813 194.896 826.182 483.432l2.458 4.751 11.266 24.013-11.266 24.013c-164.828 293.288-473.974 488.184-828.64 488.184-6.784 0-13.552-0.071-20.302-0.213l1.009 0.017zM859.611 846.186c219.957 0 398.268-178.311 398.268-398.268s-178.311-398.268-398.268-398.268c-219.957 0-398.268 178.311-398.268 398.268v0c0 0.195-0.001 0.427-0.001 0.658 0 219.594 178.016 397.61 397.61 397.61 0.232 0 0.463 0 0.695-0.001h-0.036zM454.682 757.782c-66.753-84.408-107.080-192.386-107.080-309.782s40.327-225.374 107.884-310.836l-0.804 1.054c-138.303 67.906-248.75 174.647-319.419 305.967l-1.876 3.815c72.546 135.136 182.993 241.877 317.091 307.911l4.204 1.871zM1264.54 757.782c138.303-67.906 248.75-174.647 319.419-305.967l1.876-3.815c-72.546-135.136-182.993-241.877-317.091-307.911l-4.204-1.871c66.753 84.408 107.080 192.386 107.080 309.782s-40.327 225.374-107.884 310.836l0.804-1.054zM859.611 618.721c-94.241 0-170.639-76.398-170.639-170.639s76.398-170.639 170.639-170.639c94.241 0 170.639 76.398 170.639 170.639v0c-0.14 94.168-76.464 170.464-170.63 170.557h-0.009z" />
<glyph unicode="&#xe90e;" glyph-name="facebook" d="M832.023 960h-640.046c-106.012-0.035-191.942-85.965-191.977-191.974v-640.049c0.035-106.012 85.965-191.942 191.974-191.977h640.049c106.012 0.035 191.942 85.965 191.977 191.974v640.049c-0.035 106.012-85.965 191.942-191.974 191.977h-0.003zM806.034 408.342h-95.866v-354.594h-160.042v354.594h-62.153v119.649h62.153v76.19c0 99.666 41.374 158.939 159.368 158.939h119.097v-119.097h-69.509c-45.665 0-49.036-16.918-49.036-49.036v-67.057h108.922z" />
<glyph unicode="&#xe90f;" glyph-name="gears-icon" horiz-adv-x="1025" d="M673.604 959.981l-17.415-6.97-80.164-31.336 4.243-18.087 13.229-66.877c-6.528-6.528-13.441-14.189-20.891-22.292l-66.166 14.631-18.106 4.186-6.97-16.724-27.188-62.691-6.97-16.724 15.361-10.445 57.122-38.402c-0.311-4.893-0.489-10.61-0.489-16.369s0.177-11.475 0.527-17.146l-0.038 0.777-58.543-36.098-16.014-9.754 6.97-17.415 24.385-62.691 6.97-17.415 18.106 4.186 66.877 13.229c6.899-8.103 14.19-15.394 22.022-22.068l0.27-0.224-15.361-66.877-4.186-18.106 17.415-7.68 62.691-26.478 16.724-6.97 10.445 15.361 38.402 57.122c4.893-0.311 10.61-0.489 16.369-0.489s11.476 0.178 17.146 0.527l-0.778-0.038 36.232-59.215 9.754-15.361 17.415 6.259 80.106 32.046-4.186 18.106-15.361 73.136c8.399 7.104 15.937 14.642 22.81 22.761l0.231 0.28 86.385-22.292 6.97 17.415 27.169 62.691 7.68 17.415-16.724 10.445-58.505 35.522c0.311 4.893 0.489 10.61 0.489 16.369s-0.177 11.475-0.527 17.146l0.038-0.777 58.467 36.174 16.014 9.754-6.97 17.415-24.404 62.691-6.97 17.415-18.817-4.186-68.297-15.341c-6.894 8.111-14.179 15.408-22.006 22.089l-0.267 0.223 14.593 66.877 4.186 18.106-16.724 6.97-62.672 27.169-17.415 6.97-10.445-16.014-35.522-56.431c-3.647 0.239-7.908 0.376-12.2 0.376-7.234 0-14.377-0.388-21.41-1.143l0.873 0.076-36.232 59.139zM654.749 904.951l32.737-53.647 8.352-13.229 15.361 3.475c7.029 1.151 15.13 1.809 23.384 1.809 9.708 0 19.203-0.91 28.405-2.649l-0.946 0.149 13.94-1.402 7.68 11.847 32.046 50.844 27.86-11.847-13.94-59.907-3.475-14.631 12.538-8.352c13.587-9.715 25.115-21.243 34.529-34.387l0.302-0.443 8.352-12.538 14.631 3.475 61.308 13.94 11.136-27.86-53.647-32.046-11.847-7.68 1.402-13.94c0.997-7.946 1.566-17.141 1.566-26.468s-0.569-18.523-1.674-27.552l0.108 1.084-1.402-13.94 11.847-7.68 52.956-32.68-11.136-26.478-62 15.361-15.361 3.475-8.352-12.538c-9.716-13.587-21.243-25.114-34.387-34.529l-0.443-0.302-11.847-8.352 2.784-14.631 13.94-66.166-27.86-10.445-32.008 52.841-7.68 11.847-13.94-1.402c-7.946-0.998-17.14-1.568-26.468-1.568s-18.523 0.57-27.552 1.676l1.083-0.108-13.882 1.459-6.97-11.136-34.139-51.554-28.552 12.538 13.229 59.907 3.475 13.94-11.847 9.063c-13.594 9.715-25.128 21.243-34.548 34.388l-0.302 0.443-8.352 11.847-14.631-2.784-59.907-12.538-10.445 27.86 52.937 32.737 12.538 7.68-2.093 13.94c-0.998 7.946-1.568 17.14-1.568 26.468s0.57 18.523 1.676 27.552l-0.108-1.083 2.093 13.229-11.847 7.68-51.554 34.139 11.847 28.571 60.598-13.94 13.229-2.784 8.352 10.445c12.711 14.804 25.768 27.86 36.923 39.016l8.352 8.352-2.093 11.136-12.538 59.907zM735.546 783.045c-61.505 0-111.365-49.86-111.365-111.365s49.86-111.365 111.365-111.365c61.505 0 111.365 49.86 111.365 111.365v0c-0.228 61.397-49.916 111.112-111.281 111.384h-0.026zM735.546 738.461c36.935 0 66.877-29.942 66.877-66.877s-29.942-66.877-66.877-66.877c-36.935 0-66.877 29.942-66.877 66.877v0c-0.001 0.097-0.001 0.212-0.001 0.328 0 36.755 29.795 66.55 66.55 66.55 0.135 0 0.271 0 0.406-0.001h-0.021zM257.042 560.143l-2.784-18.817-11.136-72.445c-13.462-4.553-24.969-9.746-35.863-15.897l1.033 0.536-76.631 55.682-78.013-77.955 10.445-15.361 42.491-61.308c-5.152-9.698-10.333-21.419-14.725-33.519l-0.635-2.002-73.136-13.229-18.087-3.418v-108.677l18.106-3.475 73.136-13.229c4.58-13.476 9.771-24.982 15.907-35.886l-0.546 1.056-43.912-59.215-11.847-15.361 78.032-77.994 15.361 10.445 61.212 42.491c9.697-5.152 21.419-10.333 33.518-14.725l2.003-0.636 11.136-72.445 2.784-18.798h109.445l2.784 18.106 13.94 73.136c13.463 4.557 24.971 9.749 35.866 15.898l-1.036-0.538 76.631-55.682 78.013 78.013-10.445 15.361-44.584 62c5.093 9.473 10.268 20.958 14.697 32.807l0.663 2.024 75.229 13.229 18.106 3.475v109.445l-94.084 13.94c-4.304 13.471-9.262 24.995-15.174 35.928l0.543-1.098 44.584 61.308 10.445 15.361-12.538 13.229-51.554 53.628-13.229 13.94-16.014-11.136-61.308-44.584c-9.476 5.096-20.961 10.271-32.81 14.699l-2.020 0.662-11.136 72.445-2.784 18.817zM295.443 515.558h33.429l12.538-79.415 12.538-4.186c20.496-5.981 38.289-13.568 54.93-22.958l-1.283 0.666 12.538-7.68 11.847 8.352 55.682 40.322 24.999-26.344-40.322-56.431-9.063-11.847 8.352-12.538c9.466-14.812 16.904-32.019 21.362-50.39l0.239-1.164 3.475-14.631 14.631-2.093 68.259-10.445v-34.139l-68.259-11.847-13.229-2.093-4.186-12.538c-5.983-20.49-13.571-38.276-22.958-54.911l0.666 1.284-8.352-12.538 9.063-11.847 40.322-56.431-24.961-24.404-55.682 40.322-11.847 8.352-12.538-7.68c-14.813-9.465-32.019-16.903-50.39-21.362l-1.165-0.239-13.94-3.475-2.784-14.631-11.847-66.166h-34.235l-12.538 79.415-12.538 4.186c-20.496 5.98-38.289 13.568-54.93 22.958l1.283-0.666-12.538 7.68-11.847-8.352-56.431-38.402-24.289 24.577 39.707 53.647 9.754 12.538-8.352 12.538c-9.463 14.599-16.897 31.566-21.363 49.7l-0.238 1.144-3.475 14.631-14.631 2.784-66.185 11.847v34.83l66.185 11.847 13.229 2.784 4.186 11.847c5.981 20.497 13.568 38.29 22.958 54.93l-0.666-1.283 7.68 12.538-8.468 11.828-38.402 56.431 25.076 24.385 55.682-40.322 11.847-8.352 12.538 7.68c14.854 9.428 32.111 16.817 50.53 21.214l1.158 0.233 14.631 3.475 2.093 14.631zM312.167 359.513c-61.505 0-111.365-49.86-111.365-111.365s49.86-111.365 111.365-111.365c61.505 0 111.365 49.86 111.365 111.365v0c-0.293 61.424-50.030 111.135-111.437 111.384h-0.024zM312.167 314.929c36.894-0.055 66.781-29.975 66.781-66.876 0-36.935-29.942-66.877-66.877-66.877s-66.877 29.942-66.877 66.877c0 0.007 0 0.013 0 0.020v-0.001c0.011 36.93 29.946 66.866 66.875 66.877h0.001z" />
<glyph unicode="&#xe910;" glyph-name="google-icon" horiz-adv-x="1038" d="M518.81 960c-0.567 0.002-1.239 0.004-1.911 0.004-283.759 0-514.116-228.638-516.897-511.739l-0.002-0.264c3.341-283.976 234.325-512.896 518.777-512.896s515.436 228.92 518.774 512.58l0.003 0.315c-2.783 283.365-233.14 512.003-516.899 512.003-0.648 0-1.296-0.001-1.943-0.004h0.099zM483.14 703.764h155.63l-47.201-25.624h-47.201c30.508-24.294 50.317-60.901 51.847-102.18l0.007-0.247c-0.749-45.32-25.004-84.814-61.073-106.897l-0.558-0.318c-11.469-8.711-19.293-21.706-21.081-36.56l-0.025-0.258c0.576-13.666 9.012-25.227 20.881-30.325l0.225-0.086 25.961-20.769c35.488-21.411 59.394-58.9 61.619-102.12l0.013-0.307c0-66.621-67.431-137.626-202.629-137.626-109.035 0-160.485 50.775-160.485 107.215 2.438 39.534 24.383 73.456 56.248 92.492l0.528 0.292c42.777 19.16 92.453 31.778 144.65 35.133l1.269 0.065c-12.587 13.4-20.51 31.311-21.103 51.064l-0.003 0.116c0 10.182 4.855 20.229 4.855 30.411h-25.961c-2.66-0.218-5.758-0.342-8.885-0.342-63.868 0-115.643 51.775-115.643 115.643 0 1.211 0.019 2.418 0.056 3.62l-0.004-0.176c0.277 39.371 18.535 74.421 46.962 97.385l0.24 0.187c37.927 19.177 82.679 30.408 130.054 30.408 3.801 0 7.585-0.072 11.351-0.216l-0.543 0.016zM435.938 682.995c-0.18 0.002-0.392 0.003-0.605 0.003-20.887 0-39.438-9.996-51.133-25.465l-0.117-0.161c-12.472-15.178-20.305-34.587-21.101-55.796l-0.005-0.171c0-51.18 31.827-132.771 93.998-132.771 20.039 0.526 38.161 8.319 51.92 20.827l-0.065-0.059c12.455 11.584 20.222 28.064 20.222 46.358 0 3.392-0.267 6.721-0.781 9.968l0.047-0.359c0.202 51.449-30.007 138.165-92.178 138.165zM725.89 550.225h51.854v-102.427h103.776v-51.18h-103.304v-102.427h-51.854v102.629h-103.843v51.18h103.776zM472.014 350.428c-1.617 0.034-3.523 0.053-5.434 0.053-25.748 0-50.675-3.515-74.328-10.090l1.947 0.462c-15.576-5.192-66.487-25.624-66.487-76.803s51.449-92.784 134.861-92.784c72.555 0 108.631 35.603 108.631 81.591 0 35.806-25.556 56.574-82.67 97.572z" />
<glyph unicode="&#xe911;" glyph-name="googlePlus" d="M93.365 960c-51.464-0.248-93.117-41.901-93.365-93.341v-837.357c0.248-51.464 41.901-93.117 93.341-93.365h837.357c51.464 0.248 93.117 41.901 93.365 93.341v837.357c-0.248 51.464-41.901 93.117-93.341 93.365h-0.024zM391.982 793.362h188.048l-60.025-29.322h-50.669c37.716-29.054 62.249-73.623 63.973-123.982l0.007-0.274c-1.448-54.782-31.917-102.133-76.541-127.382l-0.75-0.39c-13.365-10.16-22.595-25.163-25.074-42.348l-0.041-0.348c0.259-17.070 10.35-31.722 24.851-38.565l0.264-0.112 34.659-25.115c43.876-27.31 73.575-73.833 77.325-127.51l0.029-0.514c0-85.328-86.333-170.656-239.974-170.656-132.356 0-196.022 63.98-196.022 128.024 3.065 48.422 31.736 89.499 72.515 110.096l0.758 0.347c50.946 25.597 110.818 41.197 174.181 42.686l0.493 0.009c-14.59 15.852-23.919 36.746-25.105 59.793l-0.010 0.232c-0.041 0.887-0.065 1.928-0.065 2.974 0 11.633 2.905 22.588 8.030 32.178l-0.179-0.367h-29.322c-5.87-0.853-12.647-1.34-19.538-1.34-78.43 0-142.128 63.071-143.143 141.26l-0.001 0.096c1.119 48.654 24.206 91.695 59.694 119.735l0.33 0.252c41.19 31.691 93.5 50.79 150.27 50.79 3.879 0 7.738-0.089 11.574-0.266l-0.544 0.020zM337.294 764.040c-25.724-0.313-48.63-12.114-63.868-30.5l-0.113-0.14c-13.369-17.676-21.413-40.027-21.413-64.256 0-1.316 0.024-2.627 0.071-3.932l-0.005 0.189c0-59.648 33.654-161.364 114.65-161.364 24.427 2.059 46.394 11.187 64.229 25.305l-0.249-0.19c13.479 15.369 21.702 35.639 21.702 57.83 0 2.23-0.083 4.442-0.246 6.63l0.017-0.292c0 68.313-37.672 170.656-114.713 170.656zM725.32 618.688h85.328v-128.024h128.024v-85.328h-128.024v-128.024h-85.328v128.024h-127.961v85.328h128.024zM379.989 358.685c-0.503 0.003-1.098 0.004-1.694 0.004-34.513 0-67.889-4.862-99.483-13.939l2.538 0.624c-42.703-10.957-74.079-48.247-75.966-93.162l-0.007-0.203c0-63.98 63.164-110.694 161.364-110.694 89.66 0 137.316 41.816 137.316 97.32 0 47.028-30.326 73.022-98.639 119.987z" />
<glyph unicode="&#xe912;" glyph-name="grid" d="M0 960v-255.986h255.986v255.986zM383.979 960v-255.986h255.986v255.986zM767.957 960v-255.986h255.986v255.986zM0 576.021v-255.986h255.986v255.986zM383.979 576.021v-255.986h255.986v255.986zM767.957 576.021v-255.986h255.986v255.986zM0 192.043v-255.986h255.986v255.986zM383.979 192.043v-255.986h255.986v255.986zM767.957 192.043v-255.986h255.986v255.986z" />
<glyph unicode="&#xe913;" glyph-name="headset-icon" horiz-adv-x="866" d="M433.231 960c-238.938-0.817-432.414-194.293-433.231-433.152v-236.314c0.414-50.841 32.759-94.022 77.945-110.502l0.824-0.263v-7.389c0.363-108.626 88.303-196.591 196.885-196.994h50.497c13.676-23.655 38.831-39.329 67.651-39.385h78.777c43.503 0 78.769 35.266 78.769 78.769s-35.266 78.769-78.769 78.769h-78.734c-28.828-0.055-53.983-15.73-67.458-39.009l-0.201-0.375h-50.495c-65.246 0.020-118.134 52.908-118.154 118.152v0.002h78.769v354.462h-157.538c0 195.764 158.698 354.462 354.462 354.462s354.462-158.698 354.462-354.462v0h-157.538v-354.462h118.154c65.137 0.352 117.842 53.082 118.154 118.195v236.266c-0.817 238.938-194.293 432.414-433.152 433.231h-0.078zM78.769 448h78.769v-196.923h-39.385c-0.037 0-0.081 0-0.125 0-21.683 0-39.26 17.577-39.26 39.26 0 0.069 0 0.138 0.001 0.207v-0.011zM708.923 448h78.769v-157.467c0-0.037 0-0.081 0-0.125 0-21.683-17.577-39.26-39.26-39.26-0.044 0-0.088 0-0.132 0h-39.378z" />
<glyph unicode="&#xe914;" glyph-name="heart" horiz-adv-x="1170" d="M325.815 960c-2.311 0.058-5.032 0.091-7.761 0.091-87.793 0-167.598-34.199-226.82-90.001l0.166 0.155c-56.634-58.329-91.55-138.014-91.55-225.855 0-3.473 0.055-6.933 0.163-10.38l-0.013 0.503c0-161.034 98.632-281.168 211.139-382.299 121.609-95.746 230.039-192.588 332.209-295.647l0.247-0.25c9.484-11.782 23.778-19.359 39.853-19.725l0.060-0.001h3.353c16.136 0.367 30.43 7.945 39.834 19.625l0.079 0.101c102.42 103.31 210.849 200.152 324.92 290.162l7.536 5.735c112.572 100.868 211.205 220.936 211.205 382.299 0.063 2.389 0.099 5.203 0.099 8.024 0 88.827-35.575 169.346-93.255 228.084l0.048-0.049c-58.44 55.436-137.6 89.529-224.724 89.529-2.876 0-5.744-0.037-8.602-0.111l0.423 0.009c-85.009-4.735-160.978-39.976-217.883-94.852l0.103 0.099c-15.411-13.411-29.064-28.127-41.031-44.173l-0.526-0.737c-12.427 16.828-26.086 31.55-41.213 44.62l-0.344 0.291c-56.763 54.802-132.72 90.051-216.835 94.714l-0.879 0.039zM325.815 853.609c57.882-6.676 108.855-32.073 147.675-69.885l-0.055 0.053c24.994-21.655 47.327-45.051 67.3-70.393l0.822-1.082c9.755-13.538 25.477-22.249 43.234-22.249s33.479 8.711 43.126 22.092l0.108 0.157c20.719 26.48 43.058 49.883 67.481 70.936l0.641 0.54c38.846 37.82 89.944 63.23 146.788 69.724l1.16 0.108c2.327 0.087 5.060 0.137 7.804 0.137 58.758 0 112.186-22.822 151.903-60.085l-0.12 0.111c37.203-38.244 60.144-90.528 60.144-148.169 0-4.016-0.111-8.007-0.331-11.968l0.024 0.55c0-117.833-71.278-207.983-176.223-302.472-92.912-83.706-206.339-169.582-302.472-270.976-96.397 101.788-209.429 187.204-302.472 270.976-105.208 94.555-176.223 184.705-176.223 302.472-0.195 3.411-0.307 7.401-0.307 11.418 0 57.642 22.941 109.925 60.191 148.218l-0.047-0.049c39.552 37.159 92.944 59.988 151.668 59.988 2.878 0 5.742-0.055 8.593-0.163l-0.411 0.012z" />
<glyph unicode="&#xe915;" glyph-name="instagram" d="M192.011 960c-106.031-0.035-191.977-85.98-192.011-192.008v-639.98c0.035-106.031 85.98-191.977 192.008-192.011h639.98c106.031 0.035 191.977 85.98 192.011 192.008v639.98c-0.035 106.031-85.98 191.977-192.008 192.011h-0.003zM192.011 881.282h639.977c62.523-0.034 113.198-50.71 113.233-113.23v-162.525h-161.251c-55.136 94.803-156.244 157.521-272.001 157.521s-216.865-62.718-271.198-156.027l-0.803-1.494h-161.251v162.462c0 62.57 50.723 113.293 113.293 113.293v0zM787.664 841.923c-21.71-0.069-39.29-17.649-39.359-39.352v-78.725c0.069-21.71 17.649-39.29 39.352-39.359h78.725c21.71 0.069 39.29 17.649 39.359 39.352v78.725c-0.069 21.71-17.649 39.29-39.352 39.359h-0.007zM511.97 684.487c0.091 0 0.198 0 0.305 0 69.742 0 132.403-30.318 175.523-78.493l0.198-0.225c0.444-0.371 0.84-0.767 1.199-1.196l0.012-0.015c1.877-1.998 3.209-4.178 4.905-6.055 4.784-6.055 9.204-12.11 13.564-18.166 1.695-2.483 3.391-4.784 4.905-7.387 5.882-9.028 11.643-19.517 16.628-30.434l0.629-1.538c0.908-1.998 1.695-4.178 2.483-6.055 1.998-5.086 3.209-10.778 4.905-15.986s2.604-9.083 3.694-13.564c0.787-2.907 1.877-5.692 2.483-8.598 0.303-1.211 0.908-2.483 1.211-3.694 1.211-6.479 1.817-13.079 2.483-19.679 0.776-6.873 1.218-14.839 1.218-22.909 0-0.61-0.003-1.22-0.008-1.829l0.001 0.093c-0.666-121.676-92.64-221.665-210.85-234.965l-1.083-0.099c-7.993-0.787-16.47-1.211-24.645-1.211-73.186 0.085-138.562 33.448-181.822 85.769l-0.319 0.397c-4.784 6.055-9.204 12.11-13.564 18.166-25.437 36.848-40.631 82.467-40.631 131.635 0 0.023 0 0.047 0 0.070v-0.004c0 7.387 0.606 14.896 1.211 22.162 0 0.787 0 1.695 0 2.483 0 2.18 0.908 3.996 1.211 6.055 0.787 5.692 1.211 11.565 2.483 17.257s3.209 11.384 4.905 17.257c0.484 1.514 0.787 3.391 1.211 4.905s0.606 4.178 1.211 6.055c1.393 4.178 3.209 8.296 4.905 12.11 0.484 1.211 0.787 2.483 1.211 3.694 5.732 12.433 11.608 22.917 18.192 32.893l-0.571-0.921c1.514 2.604 3.209 4.905 4.905 7.387 6.029 9.33 12.008 17.369 18.457 24.998l-0.291-0.353 1.211 1.211c43.312 48.329 105.928 78.598 175.614 78.598 0.251 0 0.503 0 0.754-0.001h-0.039zM511.97 598.321c-28.709-0.082-55.476-8.323-78.126-22.524l0.619 0.362c6.56 2.048 14.102 3.227 21.92 3.227 42.003 0 76.054-34.050 76.054-76.054s-34.050-76.054-76.054-76.054c-42.003 0-76.054 34.050-76.054 76.054 0 0.058 0 0.115 0 0.173v-0.009c0.123 7.96 1.465 15.564 3.847 22.692l-0.154-0.53c-13.839-22.031-22.080-48.798-22.162-77.484v-0.022c0-82.936 67.233-150.17 150.17-150.17s150.17 67.233 150.17 150.17c0 82.936-67.233 150.17-150.17 150.17v0z" />
<glyph unicode="&#xe916;" glyph-name="instagram-icon" horiz-adv-x="1043" d="M289.638 960c-0.759 0.007-1.657 0.011-2.556 0.011-157.635 0-285.598-127.045-287.081-284.33l-0.001-0.141v-455.081c1.485-157.426 129.447-284.471 287.082-284.471 0.899 0 1.796 0.004 2.693 0.012l-0.137-0.001h463.348c0.759-0.007 1.657-0.011 2.556-0.011 157.635 0 285.598 127.045 287.081 284.33l0.001 0.141v455.081c-1.485 157.425-129.447 284.47-287.082 284.47-0.867 0-1.732-0.004-2.597-0.012l0.132 0.001zM868.915 846.253c30.938-0.612 55.784-25.836 55.784-56.863 0-31.411-25.463-56.874-56.874-56.874-31.407 0-56.868 25.457-56.874 56.863v0.001c0.358 31.488 25.967 56.876 57.506 56.876 0.193 0 0.386-0.001 0.578-0.003h-0.029zM521.403 732.868c154.859-2.909 279.281-129.131 279.281-284.412 0-157.103-127.357-284.46-284.46-284.46-157.086 0-284.433 127.33-284.46 284.41v0.003c1.485 157.426 129.447 284.471 287.082 284.471 0.899 0 1.796-0.004 2.693-0.012l-0.137 0.001zM521.403 619.121c-92.943-1.735-167.623-77.489-167.623-170.684 0-94.282 76.43-170.712 170.712-170.712s170.712 76.43 170.712 170.712c0 0.022 0 0.044 0 0.066v-0.003c-1.38 94.276-78.128 170.171-172.603 170.171-0.421 0-0.842-0.002-1.263-0.005h0.064z" />
<glyph unicode="&#xe917;" glyph-name="lamp-icon" horiz-adv-x="1038" d="M104.311 960l-52.756-52.756 26.419-25.98 52.383-52.48 26.143-26.338 52.675 52.562-26.338 26.143-52.48 52.415zM934.157 960l-25.98-26.419-78.607-78.574 52.383-52.659 26.143 26.338 78.542 78.542zM519.201 900.278c-163.72-0.341-296.348-132.975-296.68-296.664v-0.032c0-102.541 44.881-161.695 81.189-212.146 36.535-50.077 67.224-92.555 67.224-195.827v-74.174c0.353-48.035 31.083-88.802 73.916-104.069l0.778-0.242c-0.302-2.044-0.501-4.448-0.551-6.889l-0.001-0.061c0-40.965 33.209-74.174 74.174-74.174s74.174 33.209 74.174 74.174v0c0.007 0.347 0.012 0.757 0.012 1.167 0 2.036-0.105 4.048-0.308 6.031l0.021-0.249c43.504 15.596 74.125 56.336 74.45 104.272v74.213c0 103.191 30.689 145.75 67.224 195.827 36.259 50.434 81.189 109.588 81.189 212.146-0.332 163.767-133.034 296.429-296.784 296.696h-0.025zM519.201 826.104c0.174 0 0.379 0.001 0.585 0.001 122.537 0 221.872-99.336 221.872-221.872 0-0.206 0-0.411-0.001-0.617v0.032c0-82.812-29.228-116.457-67.224-168.012-41.019-56.723-67.841-126.187-73.951-201.507l-0.093-1.432h-162.296c-6.257 76.741-33.121 146.179-74.985 204.052l0.811-1.178c-37.948 51.555-67.175 85.118-67.175 168.012-0.001 0.193-0.001 0.422-0.001 0.65 0 122.537 99.336 221.872 221.872 221.872 0.206 0 0.412 0 0.617-0.001h-0.032zM0 603.582v-74.174h148.348v74.174zM890.104 603.582v-74.174h148.348v74.174zM156.515 330.609l-26.143-26.338-52.399-52.464-26.419-26.062 52.756-52.48 78.526 78.542 26.338 26.143zM881.952 330.609l-52.383-52.659 104.587-104.685 52.48 52.48-78.542 78.526zM445.060 158.489h148.348v-37.087c0.002-0.141 0.003-0.307 0.003-0.474 0-20.223-16.394-36.616-36.616-36.616-0.167 0-0.333 0.001-0.499 0.003h-74.149c-0.141-0.002-0.307-0.003-0.474-0.003-20.223 0-36.616 16.394-36.616 36.616 0 0.167 0.001 0.333 0.003 0.499v-0.025z" />
<glyph unicode="&#xe918;" glyph-name="link" horiz-adv-x="962" d="M222.813 960c-62.324-0.233-118.39-26.836-157.654-69.225l-0.129-0.14c-40.288-44.153-64.965-103.154-64.965-167.919s24.677-123.766 65.141-168.115l-0.176 0.196 146.547-156.012c7.092-7.853 17.311-12.766 28.676-12.766 11.104 0 21.112 4.689 28.152 12.196l0.019 0.021c7.51 8.003 12.124 18.803 12.124 30.68 0 11.56-4.37 22.099-11.549 30.055l0.035-0.040-147.647 157.050c-26.051 28.101-42.033 65.857-42.033 107.346s15.983 79.246 42.127 107.448l-0.093-0.102c24.966 27.493 60.851 44.686 100.751 44.686s75.785-17.193 100.651-44.574l0.1-0.112 196.618-209.38c26.051-28.101 42.033-65.857 42.033-107.346s-15.983-79.246-42.127-107.448l0.093 0.102c-6.359-6.301-13.327-12.009-20.802-17.021l-0.508-0.321c-10.745-8.201-17.609-21.015-17.609-35.432 0-8.88 2.604-17.152 7.090-24.094l-0.106 0.174c6.9-11.137 19.054-18.444 32.914-18.444 8.538 0 16.429 2.773 22.82 7.467l-0.107-0.075c12.114 8.653 22.754 17.859 32.477 27.955l0.069 0.072c40.288 44.153 64.965 103.154 64.965 167.919s-24.677 123.766-65.141 168.115l0.176-0.196-195.397 208.036c-39.356 42.426-95.321 68.972-157.489 69.243h-0.050zM431.948 581.419c-1.933-0.48-3.522-0.982-5.070-1.567l0.307 0.102c-6.287-1.429-11.777-4.217-16.365-8.049l0.061 0.050c-56.651-44.797-92.675-113.525-92.675-190.667 0-65.26 25.781-124.498 67.714-168.086l-0.075 0.078 195.397-208.036c39.309-42.632 95.438-69.244 157.783-69.244s118.474 26.612 157.648 69.096l0.135 0.148c40.276 44.158 64.944 103.158 64.944 167.919s-24.668 123.761-65.121 168.116l0.177-0.197-146.731 154.852c-7.161 9.669-18.53 15.868-31.347 15.868-3.155 0-6.221-0.376-9.158-1.084l0.266 0.054c-15.231-4.194-26.807-16.421-29.995-31.725l-0.047-0.271c-0.652-2.853-1.026-6.13-1.026-9.494 0-13.207 5.759-25.068 14.903-33.21l0.045-0.039 146.547-156.012c26.051-28.101 42.033-65.857 42.033-107.346s-15.983-79.246-42.127-107.448l0.093 0.102c-24.966-27.493-60.851-44.686-100.751-44.686s-75.785 17.193-100.651 44.574l-0.1 0.112-196.618 209.38c-26.051 28.101-42.033 65.857-42.033 107.346s15.983 79.246 42.127 107.448l-0.093-0.102c4.901 4.739 10.225 9.113 15.885 13.037l0.418 0.274c11.629 8.028 19.152 21.282 19.152 36.293 0 5.154-0.887 10.1-2.516 14.695l0.095-0.307c-5.108 16.54-20.261 28.35-38.172 28.35-1.784 0-3.54-0.117-5.262-0.344l0.202 0.022z" />
<glyph unicode="&#xe919;" glyph-name="linkedIn" d="M921.606 960h-819.213c-56.508-0.106-102.287-45.886-102.394-102.383v-819.223c0.106-56.508 45.886-102.287 102.383-102.394h819.223c56.508 0.106 102.287 45.886 102.394 102.383v819.223c-0.106 56.508-45.886 102.287-102.383 102.394h-0.010zM312.557 140.787h-158.967v440.393h158.967zM230.417 632.378c-1.647-0.135-3.565-0.212-5.501-0.212-39.392 0-71.326 31.934-71.326 71.326 0 0.075 0 0.149 0 0.224v-0.012c0.322 40.079 32.887 72.445 73.011 72.445 3.174 0 6.3-0.203 9.367-0.595l-0.364 0.038c1.686 0.142 3.649 0.223 5.63 0.223 39.392 0 71.326-31.934 71.326-71.326 0-0.276-0.002-0.552-0.005-0.827v0.042c-0.627-39.842-33.072-71.899-73.005-71.899-3.22 0-6.392 0.208-9.502 0.613l0.367-0.039zM870.409 140.787h-158.779v240.607c0 66.575-40.82 82.015-56.26 82.015s-66.575-10.189-66.575-82.015v-240.607h-158.779v440.393h158.779v-61.574c26.114 38.188 69.463 62.924 118.591 62.924 6.921 0 13.727-0.491 20.385-1.44l-0.764 0.089c76.827 0 138.213-61.574 138.213-200.037v-240.607z" />
<glyph unicode="&#xe91a;" glyph-name="linkedin-icon" horiz-adv-x="1029" d="M139.119 960c-76.553-0.314-138.527-62.288-138.841-138.811v-747.458c0.42-76.361 62.42-138.101 138.839-138.101 0.001 0 0.001 0 0.002 0h751.131c0.001 0 0.001 0 0.002 0 76.419 0 138.419 61.74 138.839 138.061v747.839c0 76.68-62.161 138.841-138.841 138.841v0zM139.119 881.231h751.131c0.194 0.002 0.422 0.004 0.652 0.004 32.615 0 59.054-26.439 59.054-59.054 0-0.229-0.001-0.458-0.004-0.686v0.035-747.799c0-0.084 0.001-0.182 0.001-0.281 0-32.615-26.439-59.054-59.054-59.054-0.228 0-0.456 0.001-0.683 0.004h-751.096c-0.275-0.005-0.601-0.007-0.926-0.007-32.615 0-59.054 26.439-59.054 59.054 0 0.1 0 0.2 0.001 0.3v-0.015 747.799c-0.002 0.167-0.003 0.364-0.003 0.561 0 32.666 26.481 59.146 59.146 59.146 0.294 0 0.587-0.002 0.88-0.006l-0.044 0.001zM237.511 802.462c-43.344-0.21-78.399-35.395-78.399-78.768 0-43.503 35.266-78.769 78.769-78.769s78.769 35.266 78.769 78.768v0c-0.158 43.537-35.488 78.769-79.046 78.769-0.033 0-0.065 0-0.098 0h0.005zM158.279 566.154v-472.615h158.279v472.615zM395.79 566.154v-472.615h158.279v211.594c0 65.44 6.109 124.217 85.341 124.217s73.030-70.439 73.030-128.567v-206.781h158.279v232.79c0 135.416-28.509 239.362-182.715 239.362-4.568 0.558-9.856 0.877-15.219 0.877-50.236 0-93.944-27.947-116.426-69.141l-0.346-0.693h-1.851v68.958z" />
<glyph unicode="&#xe91b;" glyph-name="list" horiz-adv-x="1309" d="M28.432 960c-15.689-0.035-28.397-12.744-28.432-28.429v-114.042c0.035-15.689 12.744-28.397 28.429-28.432h114.042c15.582 0.175 28.151 12.83 28.185 28.429v114.042c-0.034 15.602-12.603 28.258-28.168 28.432h-0.017zM279.121 931.568c-30.358-1.462-54.418-26.431-54.418-57.020 0-31.525 25.556-57.082 57.082-57.082 0.937 0 1.868 0.023 2.794 0.067l-0.131-0.005h966.825c31.423 0 56.896 25.473 56.896 56.896s-25.473 56.896-56.896 56.896h-966.825c-1.393 0.161-3.007 0.253-4.643 0.253-0.241 0-0.481-0.002-0.721-0.006h0.036zM28.432 675.552c-15.689-0.035-28.397-12.744-28.432-28.429v-113.795c0.035-15.689 12.744-28.397 28.429-28.432h114.042c15.689 0.035 28.397 12.744 28.432 28.429v113.795c-0.035 15.689-12.744 28.397-28.429 28.432h-0.003zM279.121 647.12c-30.29-1.462-54.294-26.376-54.294-56.896 0-31.457 25.501-56.958 56.958-56.958 0.937 0 1.868 0.023 2.794 0.067l-0.131-0.005h966.825c31.423 0 56.896 25.473 56.896 56.896s-25.473 56.896-56.896 56.896h-966.825c-0.796 0.053-1.726 0.083-2.664 0.083s-1.867-0.030-2.789-0.089l0.126 0.006zM28.432 391.104c-15.703 0-28.432-12.73-28.432-28.432v0-113.792c0-15.703 12.73-28.432 28.432-28.432v0h114.039c15.703 0 28.432 12.73 28.432 28.432v0 113.792c0 15.703-12.73 28.432-28.432 28.432v0zM279.121 362.672c-30.29-1.462-54.294-26.376-54.294-56.896 0-31.457 25.501-56.958 56.958-56.958 0.937 0 1.868 0.023 2.794 0.067l-0.131-0.005h966.825c31.423 0 56.896 25.473 56.896 56.896s-25.473 56.896-56.896 56.896h-966.825c-0.796 0.053-1.726 0.083-2.664 0.083s-1.867-0.030-2.789-0.090l0.126 0.006zM28.432 106.656c-15.703 0-28.432-12.73-28.432-28.432v0-113.792c0-15.703 12.73-28.432 28.432-28.432v0h114.039c15.703 0 28.432 12.73 28.432 28.432v0 113.792c0 15.703-12.73 28.432-28.432 28.432v0zM279.121 78.224c-30.29-1.462-54.294-26.376-54.294-56.896 0-31.457 25.501-56.958 56.958-56.958 0.937 0 1.868 0.023 2.794 0.067l-0.131-0.005h966.825c31.423 0 56.896 25.473 56.896 56.896s-25.473 56.896-56.896 56.896h-966.825c-0.796 0.053-1.726 0.083-2.664 0.083s-1.867-0.030-2.789-0.089l0.126 0.006z" />
<glyph unicode="&#xe91c;" glyph-name="map-icon" horiz-adv-x="1043" d="M521.382 960c-159.746-0.198-289.192-129.648-289.381-289.378v-0.018c0-113.108 69.126-252.607 136.701-367.135 46.841-78.987 91.398-145.24 139.202-208.916l-4.242 5.902 17.735-23.042 17.735 23.042c43.562 57.774 88.12 124.026 129.186 192.609l5.774 10.404c67.56 114.558 136.701 254.086 136.701 367.135-0.19 159.757-129.651 289.214-289.393 289.396h-0.018zM521.382 915.482c0.095 0 0.207 0 0.319 0 135.066 0 244.559-109.493 244.559-244.559 0-0.112 0-0.224 0-0.337v0.017c0-93.821-64.428-232.523-130.436-344.514-38.812-66.331-76.612-122.454-117.503-176.094l3.061 4.185c-37.824 49.455-75.62 105.578-110.062 163.916l-4.365 7.993c-65.994 112.005-130.436 250.693-130.436 344.514 0 0.095 0 0.207 0 0.319 0 135.066 109.493 244.559 244.559 244.559 0.107 0 0.214 0 0.321 0h-0.017zM521.382 781.914c-61.474 0-111.309-49.835-111.309-111.309s49.835-111.309 111.309-111.309c61.474 0 111.309 49.835 111.309 111.309v0c-0.197 61.395-49.914 111.112-111.291 111.309h-0.019zM521.382 737.396c36.88 0 66.777-29.897 66.777-66.777s-29.897-66.777-66.777-66.777c-36.88 0-66.777 29.897-66.777 66.777v0c0 0.091-0.001 0.198-0.001 0.305 0 36.712 29.761 66.472 66.472 66.472 0.107 0 0.215 0 0.322-0.001h-0.017zM127.304 292.216l-127.304-356.216h1042.779l-127.304 356.173h-170.343q-13.051-22.955-26.102-44.518h165.137l95.3-267.122h-916.156l95.3 267.122h165.079q-13.051 21.519-26.102 44.518z" />
<glyph unicode="&#xe91d;" glyph-name="mobileApp-icon" horiz-adv-x="885" d="M70.084 960c-38.363-0.294-69.384-31.314-69.677-69.65v-65.931c-0.217-1.135-0.341-2.44-0.341-3.774s0.124-2.639 0.361-3.905l-0.020 0.131v-713.905c-0.217-1.135-0.341-2.44-0.341-3.774s0.124-2.639 0.361-3.905l-0.020 0.131v-89.449c0.294-38.363 31.314-69.384 69.65-69.677h465.533c38.363 0.294 69.384 31.314 69.677 69.65v89.070c0.217 1.135 0.341 2.44 0.341 3.774s-0.124 2.639-0.361 3.905l0.020-0.131v182.526h209.468c38.35 0.326 69.352 31.327 69.677 69.647v277.203c-0.18 39.71-32.298 71.858-71.978 72.087h-207.023v112.442c0.217 1.135 0.341 2.44 0.341 3.774s-0.124 2.639-0.361 3.905l0.020-0.131v66.31c-0.294 38.363-31.314 69.384-69.65 69.677h-0.028zM70.084 913.548h465.505c12.827 0 23.226-10.399 23.226-23.226v0-46.452h-511.956v46.452c0 12.827 10.399 23.226 23.226 23.226v0zM46.858 797.187h512.015v-93.078h-183.949c-39.703-0.23-71.82-32.378-72-72.070v-277.015c0.326-38.35 31.327-69.352 69.647-69.677h43.58c-0.379-8.437-1.522-16.399-3.368-24.088l0.175 0.862c-5.369-11.673-14.391-20.901-25.577-26.394l-0.32-0.142c-6.942-4.102-11.525-11.547-11.525-20.063 0-12.827 10.399-23.226 23.226-23.226 0.102 0 0.203 0.001 0.305 0.002h-0.015c0.62-0.008 1.353-0.013 2.086-0.013 64.678 0 120.575 37.592 147.034 92.119l0.425 0.972h10.19v-162.901h-511.927zM374.924 657.541h203.226c1.135-0.217 2.44-0.341 3.774-0.341s2.639 0.124 3.905 0.361l-0.131-0.020h226.917c0.009 0 0.019 0 0.029 0 14.046 0 25.432-11.386 25.432-25.432 0-0.041 0-0.082 0-0.122v0.006-276.998c0.119-0.832 0.187-1.794 0.187-2.771 0-11.4-9.242-20.642-20.642-20.642-0.977 0-1.938 0.068-2.879 0.199l0.109-0.012h-279.262c-0.003 0-0.007 0-0.011 0-9.973 0-18.477-6.285-21.769-15.111l-0.052-0.16c-9.317-28.79-29.694-51.741-55.996-64.262l-0.647-0.277c5.532 16.188 8.725 34.838 8.725 54.234 0 0.816-0.006 1.631-0.017 2.444l0.001-0.123c0 12.827-10.399 23.226-23.226 23.226v0h-69.678c-0.832-0.119-1.794-0.187-2.771-0.187-11.4 0-20.642 9.242-20.642 20.642 0 0.977 0.068 1.938 0.199 2.879l-0.012-0.109v276.969c0 0.026 0 0.057 0 0.088 0 13.974 11.271 25.317 25.218 25.431h0.011zM605.47 611.089c-12.827 0-23.226-10.399-23.226-23.226v0c0-0.044 0-0.095 0-0.147 0-1.427 0.138-2.821 0.4-4.171l-0.022 0.137c-27.471-9.698-46.821-35.398-46.916-65.631v-69.69c0-12.827-10.399-23.226-23.226-23.226v0-23.226h69.678c0-12.827 10.399-23.226 23.226-23.226s23.226 10.399 23.226 23.226v0h69.678v23.226c-12.827 0-23.226 10.399-23.226 23.226v0 69.678c-0.056 30.279-19.418 56.021-46.429 65.579l-0.488 0.15c0.202 1.202 0.338 2.615 0.377 4.052l0.001 0.041c-0.098 12.712-10.393 22.986-23.103 23.052h-0.006zM46.858 75.646h512.015v-69.678c0-12.827-10.399-23.226-23.226-23.226v0h-465.563c-12.827 0-23.226 10.399-23.226 23.226v0zM233.043 52.42c-12.827 0-23.226-10.399-23.226-23.226s10.399-23.226 23.226-23.226h139.646c12.827 0 23.226 10.399 23.226 23.226s-10.399 23.226-23.226 23.226v0z" />
<glyph unicode="&#xe91e;" glyph-name="phone" d="M205.707 959.782c-1.608 0.107-3.486 0.168-5.378 0.168-19.091 0-36.732-6.211-51.012-16.722l0.238 0.167c-31.048-22.825-58.415-45.965-84.135-70.798l0.236 0.227c-15.644-14.682-29.956-30.327-43.016-47l-0.682-0.904c-12.896-13.532-21.076-31.66-21.844-51.688l-0.005-0.148c2.859-59.602 18.488-114.943 44.189-164.193l-1.037 2.184c73.236-138.784 164.398-257.254 272.33-357.983l0.78-0.72c101.435-108.729 219.908-199.894 351.485-269.621l7.218-3.489c47.065-24.674 102.408-40.304 161.11-43.117l0.899-0.034c20.157 0.782 38.266 8.96 51.813 21.879l-0.032-0.030c17.562 13.772 33.205 28.082 47.703 43.482l0.201 0.215c24.446 25.414 47.478 52.708 68.668 81.442l1.576 2.239c10.85 12.332 17.471 28.614 17.471 46.442 0 21.369-9.512 40.516-24.534 53.439l-0.093 0.078c-17.971 12.618-183.421 122.736-208.329 138.030-10.341 5.249-22.549 8.324-35.474 8.324-16.735 0-32.265-5.154-45.091-13.962l0.271 0.176c-20.429-10.924-75.761-42.496-91.601-51.618-57.637 40.893-108.109 85.193-153.643 134.149l-0.555 0.604c-49.596 46.065-93.9 96.541-132.72 151.184l-2.033 3.014c9.067 15.786 40.693 71.009 51.618 91.656 8.632 12.442 13.79 27.863 13.79 44.488 0 13.222-3.262 25.682-9.026 36.619l0.206-0.43c-6.828 10.924-37.798 57.954-69.042 105.311s-61.395 92.584-68.933 103.29v0c-10.115 13.545-25.7 22.523-43.418 23.643l-0.17 0.009zM201.446 912.26c3.798-0.436 7.241-1.639 10.277-3.452l-0.117 0.065c3.714-5.189 36.324-54.076 67.622-101.324s63.088-95.862 68.66-104.656c0.292-2.096 0.459-4.518 0.459-6.978 0-9.953-2.728-19.269-7.476-27.242l0.135 0.245c-10.269-19.555-58.173-103.236-58.173-103.236l-6.609-11.744 6.828-11.635c44.958-65.215 94.089-122.132 148.7-173.268l0.582-0.539c51.777-55.218 108.78-104.4 170.572-147.15l3.508-2.296 11.635-6.828 11.744 6.609s83.517 47.794 103.236 58.173c7.662 4.572 16.897 7.274 26.765 7.274 2.698 0 5.349-0.202 7.939-0.592l-0.291 0.036c16.059-9.887 194.782-128.635 205.816-136.555 2.363-4.243 3.754-9.307 3.754-14.695 0-7.887-2.98-15.078-7.875-20.509l0.024 0.027c-21.395-28.926-42.881-54.414-65.845-78.479l0.299 0.315c-13.023-13.877-26.846-26.608-41.543-38.286l-0.789-0.605c-6.38-4.408-13.688-8.615-21.337-12.216l-0.949-0.402c-52.931 1.961-102.15 16.088-145.502 39.645l1.737-0.864c-133.935 70.836-248.244 159.024-345.362 263.42l-0.724 0.787c-104.976 97.789-193.029 211.98-260.454 338.808l-3.371 6.949c-22.636 41.592-36.739 90.768-38.709 143.049l-0.018 0.607c3.98 8.612 8.188 15.939 12.952 22.853l-0.334-0.513c12.252 15.541 24.95 29.399 38.593 42.265l0.189 0.177c23.753 22.628 49.239 44.113 75.985 63.998l2.179 1.549c5.972 4.602 13.559 7.376 21.794 7.376 1.212 0 2.41-0.060 3.591-0.177l-0.149 0.012z" />
<glyph unicode="&#xe91f;" glyph-name="phone-icon" d="M205.657 959.765c-1.517 0.095-3.29 0.15-5.076 0.15-19.22 0-36.969-6.296-51.298-16.938l0.231 0.164c-30.975-22.744-58.271-45.787-83.932-70.514l0.249 0.239c-15.688-14.681-30.034-30.321-43.126-46.992l-0.676-0.894c-12.966-13.54-21.199-31.705-21.987-51.782l-0.005-0.151c2.863-59.607 18.498-114.95 44.207-164.2l-1.037 2.183c40.604-86.393 119.462-204.97 273.058-358.711s272.281-232.509 358.693-273.131c47.062-24.673 102.401-40.303 161.1-43.117l0.899-0.034c20.176 0.83 38.284 9.056 51.818 22.019l-0.029-0.027c17.547 13.813 33.185 28.173 47.672 43.626l0.214 0.23c24.444 25.414 47.474 52.708 68.662 81.444l1.576 2.239c25.714 36.61 21.449 79.87-7.228 99.946-18.070 12.649-183.448 122.751-208.349 138.020-25.298 15.45-54.337 8.457-80.322-5.276-20.437-10.842-75.786-42.519-91.58-51.608-11.908 7.535-57.066 37.622-154.193 134.749s-127.196 142.284-134.749 154.193c9.035 15.811 40.712 70.871 51.608 91.67 13.625 25.895 21.269 55.24 4.987 80.683-6.812 10.842-37.803 57.969-69.046 105.313s-61.059 92.158-68.775 103v-0.036c-10.128 13.499-25.702 22.439-43.4 23.537l-0.167 0.008zM560.464 912.963c-39.7-0.255-71.803-32.421-71.955-72.122v-230.265c0.244-38.444 31.343-69.543 69.764-69.787h42.813c-0.493-8.201-1.781-15.868-3.799-23.234l0.185 0.791c-6.324-11.877-15.939-21.289-27.627-27.192l-0.363-0.166c-6.799-4.149-11.269-11.527-11.269-19.949 0-12.855 10.414-23.278 23.267-23.292h0.001c0.709-0.010 1.545-0.015 2.384-0.015 32.009 0 62.113 8.15 88.353 22.489l-0.964-0.482c27.616 16.876 49.254 41.141 62.477 70.059l0.407 0.993h173.022c38.444 0.244 69.543 31.343 69.787 69.764v230.273c-0.153 39.715-32.255 71.881-71.931 72.136h-0.024zM201.374 912.241c3.801-0.425 7.249-1.62 10.292-3.426l-0.119 0.065c3.722-5.186 36.339-54.066 67.6-101.301s63.155-95.772 68.667-104.68c0.29-2.090 0.456-4.505 0.456-6.959 0-9.967-2.734-19.295-7.494-27.275l0.135 0.244v-0.090c-10.192-19.534-58.114-103.144-58.114-103.144l-6.632-11.728 6.812-11.637s35.707-60.246 149.278-173.817 173.907-149.368 173.907-149.368l11.637-6.812 11.728 6.632s83.502 47.796 103.217 58.15c7.666 4.575 16.906 7.28 26.779 7.28 2.704 0 5.36-0.203 7.955-0.594l-0.292 0.036c16.082-9.902 194.814-128.66 205.801-136.376 2.353-4.242 3.738-9.302 3.738-14.686 0-7.881-2.968-15.069-7.847-20.507l0.025 0.029h-0.090c-21.431-28.903-42.961-54.382-65.969-78.434l0.284 0.299c-13.025-13.875-26.849-26.606-41.549-38.282l-0.789-0.605c-6.375-4.419-13.675-8.636-21.317-12.247l-0.946-0.402c-19.877 0.632-63.517 1.084-143.748 38.797s-194.724 112.939-345.628 263.951-226.238 265.27-263.879 345.592-38.074 123.925-38.706 143.64c3.982 8.63 8.195 15.974 12.966 22.903l-0.335-0.514c12.255 15.519 24.957 29.361 38.603 42.212l0.194 0.181c23.757 22.688 49.234 44.216 75.975 64.145l2.161 1.54v-0.090c5.986 4.643 13.604 7.443 21.875 7.443 1.193 0 2.372-0.058 3.534-0.172l-0.147 0.012zM560.482 866.451h344.544c0 0 0 0 0.001 0 14.052 0 25.443-11.391 25.443-25.443 0-0.064 0-0.127-0.001-0.19v0.010-230.25c0.12-0.836 0.189-1.802 0.189-2.784 0-11.397-9.239-20.636-20.636-20.636-1.010 0-2.003 0.073-2.974 0.213l0.111-0.013h-186.123c-0.013 0-0.029 0-0.045 0-9.958 0-18.447-6.288-21.714-15.109l-0.052-0.16c-8.822-26.597-26.772-48.148-50.056-61.408l-0.54-0.283c-2.277-1.265-4.987-0.632-7.355-1.807 6.328 16.384 9.993 35.342 9.993 55.156 0 0.125 0 0.25 0 0.375v-0.019c-0.031 12.806-10.383 23.185-23.177 23.256h-69.794c-0.845-0.123-1.821-0.193-2.813-0.193-11.397 0-20.636 9.239-20.636 20.636 0 0.992 0.070 1.968 0.205 2.922l-0.013-0.11v230.214c0 0.054-0.001 0.117-0.001 0.181 0 14.052 11.391 25.443 25.443 25.443 0 0 0 0 0.001 0v0z" />
<glyph unicode="&#xe920;" glyph-name="pinterest" d="M511.799 960c-0.472 0.002-1.030 0.002-1.589 0.002-282.659 0-511.799-229.14-511.799-511.799 0-216.209 134.068-401.105 323.605-476.089l3.465-1.209c-3.019 20.43-4.743 44.013-4.743 67.998 0 27.893 2.332 55.241 6.811 81.86l-0.4-2.875c9.316 39.851 59.978 254.519 59.978 254.519-9.605 21.724-15.196 47.059-15.196 73.7 0 0.817 0.005 1.632 0.016 2.446l-0.001-0.124c0 71.192 41.174 124.327 92.469 124.327 0.2 0.002 0.436 0.004 0.673 0.004 35.571 0 64.406-28.836 64.406-64.406 0-2.656-0.161-5.274-0.473-7.846l0.031 0.309c-10.523-65.040-25.305-122.441-44.689-177.677l2.193 7.173c-1.437-5.465-2.262-11.739-2.262-18.206 0-41.097 33.315-74.412 74.412-74.412 1.301 0 2.595 0.033 3.879 0.099l-0.18-0.007c90.974 0 161.015 95.977 161.015 234.507 0.067 1.938 0.105 4.217 0.105 6.503 0 111.571-90.446 202.017-202.017 202.017-4.184 0-8.339-0.127-12.46-0.378l0.566 0.028c-2.884 0.134-6.264 0.211-9.663 0.211-122.337 0-221.511-99.174-221.511-221.511 0-0.296 0.001-0.593 0.002-0.889v0.046c0.089-43.94 14.399-84.521 38.571-117.404l-0.388 0.553c2.533-2.746 4.086-6.429 4.086-10.475 0-1.492-0.211-2.934-0.605-4.299l0.027 0.109c-4.025-16.159-12.479-51.007-14.146-58.023-2.358-9.488-7.476-11.501-17.252-6.843-63.031 41.529-104.057 111.988-104.057 192.029 0 2.218 0.031 4.428 0.094 6.631l-0.007-0.324c0 161.475 117.311 309.84 338.305 309.84 4.56 0.247 9.898 0.388 15.268 0.388 164.43 0 298.005-132.107 300.377-295.973l0.003-0.223c0-176.312-111.331-318.35-265.675-318.35-1.453-0.055-3.16-0.087-4.874-0.087-46.373 0-87.364 23.044-112.147 58.306l-0.291 0.436s-25.647-97.759-31.973-121.682c-16.669-51.148-38.256-95.56-64.977-136.302l1.319 2.142c44.765-14.189 96.249-22.365 149.643-22.365 282.659 0 511.799 229.14 511.799 511.799 0 281.936-227.969 510.626-509.631 511.794h-0.112z" />
<glyph unicode="&#xe921;" glyph-name="price" horiz-adv-x="1023" d="M840.941 960c-100.941-0.518-182.635-82.189-183.189-183.071v-0.053c1.685-31.263 5.662-60.485 11.811-88.899l-0.665 3.664c5.114-29.111 9.9-53.239 9.9-53.239 2.578-14.37 14.984-25.134 29.904-25.134 16.766 0 30.357 13.591 30.357 30.357 0 2.545-0.313 5.016-0.903 7.378l0.044-0.209s-5.114 22.882-9.9 50.748c-4.127 21.688-7.217 47.617-8.594 74l-0.061 1.466c0 0.053 0 0.115 0 0.177 0 67.207 54.482 121.689 121.689 121.689s121.689-54.482 121.689-121.689c0-4.868-0.286-9.668-0.842-14.387l0.055 0.572c-0.204-88.504-23.114-171.613-63.211-243.867l1.317 2.587c-2.875-4.574-4.58-10.136-4.58-16.096 0-16.887 13.69-30.576 30.576-30.576 10.927 0 20.515 5.732 25.922 14.352l0.075 0.128c44.051 78.942 70.146 173.117 70.548 273.352v0.121c0.156 2.859 0.245 6.205 0.245 9.572 0 101.61-80.988 184.305-181.935 187.053l-0.254 0.005zM516.786 796.677c-3.973 0.357-8.595 0.56-13.263 0.56-14.641 0-28.814-1.999-42.262-5.74l1.107 0.263-441.911-441.845c-12.617-12.692-20.416-30.186-20.416-49.502s7.799-36.81 20.419-49.505l294.517-294.517c12.692-12.617 30.186-20.416 49.502-20.416s36.81 7.799 49.505 20.419l441.776 441.842c20.129 20.129 2.164 215.776-9.9 316.812-7.147 59.009-7.278 59.73-65.565 66.811-9.9 1.246-20.391 2.623-30.947 3.737-0.499-2.364-0.939-5.32-1.221-8.322l-0.025-0.332c1.125-23.601 3.773-45.704 7.879-67.29l-0.47 2.97c21.708-15.144 35.733-39.997 35.733-68.126 0-45.734-37.075-82.809-82.809-82.809s-82.809 37.075-82.809 82.809c0 0.001 0 0.003 0 0.004v0c-0.005 0.345-0.008 0.751-0.008 1.159 0 17.057 5.093 32.924 13.84 46.165l-0.194-0.313c-4.985 24.813-8.527 54.106-9.856 83.975l-0.045 1.26c0 5.704 0.787 11.605 1.246 17.309-43.076 2.295-83.268 3.082-113.821 2.623z" />
<glyph unicode="&#xe922;" glyph-name="print" d="M213.343 960v-298.695h-85.352c-70.515-0.427-127.564-57.476-127.99-127.95v-426.727h213.343v-170.629h597.011v170.705h213.343v426.61c-0.427 70.515-57.476 127.564-127.95 127.99h-85.393v298.695zM298.695 874.648h426.686v-213.343h-426.686zM127.991 576.028h768.019c0.227 0.004 0.496 0.007 0.764 0.007 23.13 0 41.881-18.751 41.881-41.881 0-0.269-0.003-0.537-0.008-0.804l0.001 0.040v-341.333h-128.293v170.629h-597.011v-170.629h-127.991v341.258c-0.005 0.25-0.008 0.545-0.008 0.84 0 23.13 18.751 41.881 41.881 41.881 0.269 0 0.538-0.003 0.806-0.008l-0.040 0.001zM170.629 533.39c-23.548 0-42.638-19.090-42.638-42.638s19.090-42.638 42.638-42.638c23.548 0 42.638 19.090 42.638 42.638v0c-0.086 23.499-19.134 42.52-42.634 42.563h-0.004zM298.619 277.409h426.686v-255.981h-426.61z" />
<glyph unicode="&#xe923;" glyph-name="quote-left-light" horiz-adv-x="1308" d="M1308.45-64v568.9h-312.926v56.849c-0.019 1.133-0.030 2.47-0.030 3.809 0 52.543 16.749 101.174 45.2 140.845l-0.495-0.726c21.554 32.116 57.068 53.422 97.653 55.189l0.259 0.009h28.166v199.125h-28.476c-219.853-0.235-398.016-178.397-398.251-398.228v-625.772zM568.9-64v568.9h-312.823v56.849c-0.024 1.26-0.037 2.746-0.037 4.235 0 52.359 16.632 100.833 44.901 140.428l-0.499-0.736c21.554 32.116 57.068 53.422 97.653 55.189l0.259 0.009h28.373v199.125h-28.476c-219.853-0.235-398.016-178.397-398.251-398.228v-625.772zM1251.601-7.151h-455.1v568.9c0.78 177.18 137.81 322.109 311.675 335.45l1.148 0.071v-87.079c-47.231-8.729-87.34-34.299-114.709-70.122l-0.329-0.449c-34.852-48.045-55.751-108.185-55.751-173.206 0-1.64 0.013-3.278 0.040-4.912l-0.003 0.246v-113.491h313.029zM512.052-7.151h-455.1v568.9c0.772 177.114 137.692 322.005 311.461 335.449l1.156 0.072v-87.079c-47.231-8.729-87.34-34.299-114.709-70.122l-0.329-0.449c-34.852-48.045-55.751-108.185-55.751-173.206 0-1.64 0.013-3.278 0.040-4.912l-0.003 0.246v-113.491h313.236z" />
<glyph unicode="&#xe924;" glyph-name="quote-right-light" horiz-adv-x="1308" d="M0 960v-568.9h312.926v-56.849c0.019-1.133 0.030-2.47 0.030-3.809 0-52.543-16.749-101.174-45.2-140.845l0.495 0.726c-21.554-32.116-57.068-53.422-97.653-55.189l-0.259-0.009h-28.166v-199.125h28.476c219.853 0.235 398.016 178.397 398.251 398.228v625.772zM739.55 960v-568.9h312.823v-56.849c0.024-1.26 0.037-2.746 0.037-4.235 0-52.359-16.632-100.833-44.901-140.428l0.499 0.736c-21.554-32.116-57.068-53.422-97.653-55.189l-0.259-0.009h-28.476v-199.125h28.476c219.853 0.235 398.016 178.397 398.251 398.228v625.772zM56.849 903.151h455.1v-568.9c-0.78-177.18-137.81-322.109-311.675-335.45l-1.148-0.071v87.079c47.231 8.729 87.34 34.299 114.709 70.122l0.329 0.449c34.852 48.045 55.751 108.185 55.751 173.206 0 1.64-0.013 3.278-0.040 4.912l0.003-0.246v113.491h-313.029zM796.399 903.151h455.1v-568.9c-0.772-177.114-137.692-322.005-311.461-335.449l-1.156-0.072v87.079c47.231 8.729 87.34 34.299 114.709 70.122l0.329 0.449c34.852 48.045 55.751 108.185 55.751 173.206 0 1.64-0.013 3.278-0.040 4.912l0.003-0.246v113.491h-313.236z" />
<glyph unicode="&#xe925;" glyph-name="rocket-icon" d="M940.949 960c-27.591 0-66.012-1.25-106.615-4.959-81.206-7.597-174.948-21.224-233.065-79.341-48.815-48.815-149.697-178.359-242.983-300.010-18.447-24.021-17.673-23.564-34.712-45.879l-68.194 3.729c-2.595 0.152-5.631 0.239-8.687 0.239-49.417 0-93.533-22.694-122.496-58.228l-0.227-0.287-83.051-101.656-40.92-52.068 64.465-12.397 130.179-26.044 152.494-152.494 26.044-130.179 13.647-64.465 50.838 40.9 101.656 83.051c35.79 29.189 58.462 73.286 58.462 122.679 0 3.092-0.089 6.163-0.264 9.212l0.019-0.422-3.709 66.944c23.088 17.515 22.315 17.039 47.109 35.942 121.948 93.444 251.909 193.712 300.010 241.733 57.642 57.642 70.515 152.732 78.112 234.295 3.004 31.090 4.717 67.214 4.717 103.739 0 16.708-0.358 33.332-1.068 49.865l0.080-2.359-1.23 35.942-35.942 1.23s-17.158 1.289-44.669 1.289zM904.988 880.659c15.868 0 26.956-0.932 38.441-1.25 0.248-7.146 0.389-15.544 0.389-23.975 0-27.363-1.489-54.378-4.39-80.969l0.291 3.288c-6.962-75.156-29.932-158.921-55.797-184.707-35.327-35.327-169.83-142.418-291.322-235.545-107.389-82.277-183.021-140.097-204.542-156.203l-121.492 121.492c16.265 21.819 71.903 97.788 153.724 204.542 92.948 121.254 200.337 256.134 236.755 292.571 27.115 27.115 109.868 50.045 184.727 57.027 27.115 2.479 47.347 3.729 63.215 3.729zM723.99 740.562c-43.962-0.712-79.327-36.516-79.327-80.581s35.365-79.869 79.26-80.58l0.067-0.001c43.962 0.712 79.327 36.516 79.327 80.581s-35.365 79.869-79.26 80.58l-0.067 0.001zM250.421 454.199l14.877-1.25c-23.802-31.618-62.918-82.277-68.174-89.259l-53.317 11.167 40.92 49.588c14.662 18.254 36.98 29.839 62.005 29.839 1.298 0 2.589-0.031 3.871-0.093l-0.181 0.007zM159.932 248.407c-29.934-33.382-52.946-73.631-66.368-118.043l-0.576-2.219c-7.078-19.39-13.919-43.48-19.168-68.158l-0.667-3.745-12.397-58.256 58.276 11.147c27.622 5.287 51.338 11.723 74.324 19.717l-3.671-1.111c47.212 14.025 87.921 37.494 121.73 68.389l-0.238-0.214-55.797 55.797c-23.872-19.284-51.94-34.53-82.504-44.142l-1.796-0.487c10.701 32.712 25.882 61.104 45.132 86.212l-0.502-0.682zM516.969 201.298l1.23-14.877c0.115-1.587 0.181-3.439 0.181-5.306 0-24.3-11.119-46.004-28.547-60.3l-0.137-0.109-50.838-40.9-11.147 53.298c6.962 5.118 57.642 44.491 89.259 68.194z" />
<glyph unicode="&#xe926;" glyph-name="search-icon" d="M398.127 960c0.041 0 0.091 0 0.14 0 219.785 0 397.956-178.171 397.956-397.956 0-95.726-33.799-183.558-90.114-252.214l0.556 0.699 317.279-317.279-57.136-57.136-317.336 317.165c-67.942-55.675-155.722-89.419-251.384-89.419-219.848 0-398.070 178.222-398.070 398.070s178.222 398.070 398.070 398.070c0.014 0 0.029 0 0.043 0h-0.002zM398.127 880.352c-175.923 0-318.536-142.613-318.536-318.536s142.613-318.536 318.536-318.536c175.923 0 318.536 142.613 318.536 318.536v0c0 0.17 0.001 0.371 0.001 0.572 0 175.607-142.358 317.965-317.965 317.965-0.201 0-0.402 0-0.603-0.001h0.031z" />
<glyph unicode="&#xe927;" glyph-name="share" horiz-adv-x="1451" d="M970.114 211.929l470.859 346.921c6.46 5.775 10.507 14.133 10.507 23.436s-4.047 17.661-10.477 23.409l-0.030 0.027-470.859 346.921c-5.826 4.354-13.171 6.972-21.127 6.972-17.87 0-32.655-13.204-35.131-30.388l-0.023-0.19v-170.382c-920.933 0.171-913.834-822.656-913.834-822.656s63.123 470.431 913.748 470.431v-170.382c2.261-17.623 17.168-31.104 35.223-31.104 7.963 0 15.314 2.622 21.236 7.050l-0.093-0.067z" />
<glyph unicode="&#xe928;" glyph-name="share-icon" d="M819.204 960c-112.161-0.154-203.218-90.293-204.853-202.086l-0.002-0.154-288.533-144.647c-33.49 24.821-75.626 39.732-121.243 39.732-113.138 0-204.855-91.717-204.855-204.855s91.717-204.855 204.855-204.855c45.618 0 87.753 14.911 121.798 40.124l-0.555-0.392 288.591-144.627c1.058-112.687 92.654-203.629 205.49-203.629 113.494 0 205.498 92.005 205.498 205.498s-92.005 205.498-205.498 205.498c-44.112 0-84.978-13.899-118.457-37.556l0.645 0.432-279.675 139.516 279.675 139.516c32.687-23.094 73.359-36.913 117.258-36.913 113.052 0 204.699 91.647 204.699 204.699s-91.647 204.699-204.699 204.699c-0.049 0-0.098 0-0.147 0h0.008zM819.204 919.029c0.236 0.001 0.514 0.002 0.793 0.002 90.51 0 163.884-73.373 163.884-163.884s-73.373-163.884-163.884-163.884c-33.932 0-65.456 10.312-91.607 27.974l0.58-0.369c-2.567 8.409-10.141 14.467-19.168 14.729l-0.030 0.001s-0.566 0-0.644 0c-28.449 25.936-47.667 61.568-52.407 101.636l-0.074 0.772c1.84 3.018 2.929 6.668 2.929 10.572 0 4.711-1.586 9.052-4.252 12.517l0.036-0.048c2.043 88.787 74.502 159.982 163.589 159.982 0.090 0 0.18 0 0.269 0h-0.014zM618.876 714.174c7.995-37.942 25.559-70.927 50.050-97.413l-0.124 0.136-262.994-131.79c-7.162 38.268-24.125 71.741-48.174 98.77l0.18-0.206zM204.855 611.845c0.245 0.001 0.536 0.002 0.826 0.002 37.685 0 72.388-12.765 100.022-34.207l-0.371 0.277c0.234-0.156 0.39-0.488 0.644-0.644 0.206-0.502 0.422-0.926 0.667-1.329l-0.023 0.041c1.743-2.104 3.872-3.822 6.287-5.059l0.112-0.052s0.566 0 0.644 0c30.605-27.337 50.829-65.737 54.355-108.865l0.039-0.586c-1.002-2.347-1.585-5.077-1.585-7.943 0-3.408 0.824-6.624 2.283-9.459l-0.054 0.116c-0.396-1.53-0.63-3.29-0.644-5.103v-0.009c-2.416-45.492-23.134-85.715-54.864-113.768l-0.174-0.151c-1.977-1.246-3.664-2.734-5.083-4.452l-0.028-0.036c-27.915-22.756-63.928-36.542-103.16-36.542-90.51 0-163.884 73.373-163.884 163.884s73.373 163.884 163.884 163.884c0.038 0 0.076 0 0.114 0h-0.006zM405.807 410.892l262.994-131.79c-24.367-26.35-41.931-59.335-49.689-95.942l-0.237-1.335-261.121 130.444c23.897 26.829 40.881 60.316 47.855 97.337l0.198 1.266zM819.243 304.66c89.684-0.465 162.207-73.275 162.207-163.023 0-90.036-72.989-163.025-163.025-163.025s-163.025 72.989-163.025 163.025c0 48.838 21.475 92.66 55.497 122.538l0.184 0.158c0.472 0.394 0.893 0.816 1.275 1.272l0.013 0.016s0.566 0 0.644 0c3.365 1.43 6.17 3.615 8.296 6.353l0.035 0.046c26.899 20.365 60.92 32.621 97.803 32.621 0.021 0 0.041 0 0.062 0h-0.003z" />
<glyph unicode="&#xe929;" glyph-name="tags" horiz-adv-x="1020" d="M476.47-33.842l543.156 537.938v455.904h-450.839l-537.861-537.938c-19.006-18.999-30.761-45.249-30.761-74.245s11.756-55.246 30.761-74.244l302.427-302.427c17.542-21.51 44.045-35.136 73.73-35.136 27.359 0 52.015 11.575 69.338 30.094l0.050 0.054zM840.365 857.554c42.382 0 76.739-34.357 76.739-76.739s-34.357-76.739-76.739-76.739c-42.382 0-76.739 34.357-76.739 76.739v0c1.083 41.939 34.8 75.656 76.637 76.737l0.102 0.002z" />
<glyph unicode="&#xe92a;" glyph-name="tags-light" d="M542.807 960l-13.674-12.29-529.133-534.749 30.115-31.418 415.59-415.59 31.418-30.115 30.115 30.115 504.634 499.018 12.29 13.674v481.356zM579.759 872.503h356.825v-356.825l-459.38-456.612-354.058 354.058zM805.38 785.006c-24.184 0-43.789-19.605-43.789-43.789s19.605-43.789 43.789-43.789c24.184 0 43.789 19.605 43.789 43.789v0c-0.046 24.194-19.67 43.789-43.871 43.789 0 0 0 0 0 0v0z" />
<glyph unicode="&#xe92b;" glyph-name="twitter" d="M921.569 960h-819.2c-56.481-0.139-102.23-45.888-102.369-102.356v-819.213c0.139-56.481 45.888-102.23 102.356-102.369h819.213c56.481 0.139 102.23 45.888 102.369 102.356v819.213c-0.139 56.481-45.888 102.23-102.356 102.369h-0.013zM799.045 611.785v-20.4c0.005-0.731 0.007-1.595 0.007-2.459 0-230.479-186.84-417.319-417.319-417.319-0.95 0-1.9 0.003-2.849 0.010l0.146-0.001c-83.635 0.949-161.33 25.565-226.937 67.445l1.737-1.037h35.777c69.273 1.739 132.893 24.552 185.063 62.235l-0.97-0.667c-64.275 1.494-118.368 43.451-137.9 101.319l-0.308 1.051c10.051-1.451 18.714-3.269 27.178-5.571l-1.57 0.364c1.998-0.129 4.333-0.203 6.685-0.203 12.195 0 23.928 1.98 34.895 5.635l-0.779-0.225c-67.163 14.331-116.916 72.84-117.623 143.093l-0.001 0.077c19.216-9.157 41.524-16.261 64.908-20.192l1.5-0.208c-39.036 29.874-64.456 75.842-66.278 127.811l-0.008 0.289c-0.082 1.633-0.128 3.546-0.128 5.471 0 24.722 7.679 47.651 20.782 66.53l-0.253-0.385c72.503-88.99 179.885-147.167 300.995-153.542l1.028-0.043c0 10.415-5.024 20.584-5.024 36.022 0.139 81.891 66.487 148.238 148.364 148.377h0.013c1.134 0.033 2.468 0.052 3.807 0.052 41.103 0 78.066-17.723 103.665-45.943l0.104-0.117c34.709 6.058 65.641 18.583 92.834 36.354l-0.94-0.576c-12.104-34.997-35.569-63.462-65.902-81.647l-0.69-0.384c32.35 4.178 61.709 13.187 88.67 26.347l-1.677-0.739c-20.222-29.53-43.77-54.85-70.558-76.289l-0.69-0.534z" />
<glyph unicode="&#xe92c;" glyph-name="twitter-icon" horiz-adv-x="1327" d="M1327.242 839.35c-45.14-20.828-97.517-35.625-152.53-41.663l-2.279-0.203c55.068 32.28 97.444 81.109 120.834 139.584l0.672 1.904c-49.332-29.272-106.825-51.213-168.051-62.496l-3.218-0.493c-52.983 51.34-125.073 83.232-204.609 84.016l-0.153 0.001c-1.789 0.043-3.896 0.068-6.009 0.068-143.717 0-260.722-114.368-264.967-257.057l-0.009-0.391c-0.206-3.291-0.323-7.138-0.323-11.012 0-16.644 2.166-32.782 6.232-48.148l-0.295 1.309c-250.359 6.225-471.104 127.746-611.906 313.267l-1.429 1.963c-24.367-34.58-38.945-77.582-38.945-123.989 0-2.573 0.045-5.136 0.134-7.688l-0.010 0.37c1.976-90.4 49.636-169.252 120.739-214.601l1.053-0.628c-44.95 4.439-86.211 15.529-124.396 32.326l2.604-1.022v-5.138c1.378-126.6 93.646-231.246 214.559-251.836l1.526-0.215c-21.443-5.995-46.19-9.771-71.708-10.458l-0.415-0.009c-2.391-0.121-5.193-0.191-8.010-0.191-14.801 0-29.155 1.909-42.831 5.495l1.173-0.261c55.214-123.209 170.304-210.747 307.22-226.014l1.731-0.157c-92.634-79.204-213.84-127.403-346.304-127.403-3.494 0-6.98 0.034-10.458 0.1l0.521-0.008h-47.575c108.146-59.259 236.948-94.114 373.891-94.114 14.374 0 28.659 0.384 42.845 1.142l-1.979-0.084c8.055-0.311 17.515-0.488 27.016-0.488 408.681 0 740.741 328.056 747.209 735.196l0.008 0.608v31.685c54.224 37.668 100.014 83.004 137.009 135.030l1.148 1.7z" />
<glyph unicode="&#xe92d;" glyph-name="vision-icon" horiz-adv-x="629" d="M365.755 959.961c-12.296-0.059-23.505-4.669-32.037-12.231l0.051 0.044-0.642-0.642c-10.96-11.972-21.648-24.892-31.675-38.335l-0.94-1.318c-14.545-18.712-31.449-41.657-48.602-64.602-34.371-45.863-67.079-90.023-74.823-101.699-1.777-2.722-2.933-5.999-3.193-9.525l-0.004-0.067c-2.264-5.539-3.577-11.967-3.577-18.702 0-2.184 0.138-4.335 0.406-6.446l-0.026 0.251c2.168-11.544 5.717-21.833 10.539-31.368l-0.305 0.666c-7.993-10.706-8.557-11.191-17.271-23.023-16.144-21.739-32.537-43.885-45.405-61.405-8.151-11.112-11.518-15.423-15.987-21.739-2.44-1.461-4.542-3.154-6.382-5.097l-0.013-0.014c-0.964-0.95-1.827-1.996-2.576-3.125l-0.045-0.072c-3.607-5.663-5.749-12.564-5.749-19.966 0-2.439 0.233-4.823 0.677-7.132l-0.038 0.235c0.871-4.823 2.202-9.113 3.985-13.159l-0.145 0.37c-7.993-12.553-10.155-15.829-20.468-31.973-11.112-17.428-22.145-35.184-30.702-48.602-3.997-6.237-7.6-11.269-10.234-15.345-1.193-0.819-2.238-1.681-3.201-2.625l0.004 0.004c-4.752-4.938-7.679-11.662-7.679-19.070 0-0.040 0-0.080 0-0.12v0.006c0.083-5.557 1.251-10.819 3.3-15.614l-0.102 0.269c4.088-9.25 9.698-17.114 16.595-23.633l0.034-0.032c6.345-6.725 14.007-12.131 22.583-15.818l0.441-0.169c4.526-1.947 9.788-3.114 15.313-3.197h0.032c0.109-0.001 0.237-0.002 0.365-0.002 5.283 0 10.233 1.426 14.486 3.915l-0.136-0.073c0.481 0.4 0.91 0.829 1.297 1.294l0.013 0.016 1.31 0.642c0.683 0.605 1.308 1.23 1.893 1.89l0.020 0.023 95.933 68.441c3.897-1.482 8.439-2.605 13.152-3.17l0.279-0.027c1.245-0.114 2.692-0.179 4.154-0.179s2.909 0.065 4.339 0.193l-0.185-0.013c1.153-0.223 2.479-0.351 3.835-0.351 2.286 0 4.487 0.363 6.549 1.035l-0.149-0.042v-47.973l-221.927-342.823c-1.963-3.085-3.129-6.845-3.129-10.876 0-11.28 9.125-20.429 20.396-20.468h75.469c7.244 0.033 13.598 3.817 17.221 9.509l0.049 0.083 111.92 174.609v-225.124c0.022-11.295 9.173-20.446 20.466-20.468h61.407c11.295 0.022 20.446 9.173 20.468 20.466v225.126l111.933-174.609c3.671-5.777 10.026-9.562 17.266-9.592h75.469c11.275 0.039 20.4 9.188 20.4 20.468 0 4.032-1.166 7.791-3.178 10.96l0.049-0.083-221.953 342.81v122.167c7.6 5.595 13.995 10.627 21.11 15.987 8.72-4.144 18.838-7.274 29.457-8.875l0.603-0.075c2.534-0.535 5.446-0.841 8.429-0.841 11.054 0 21.126 4.207 28.702 11.106l-0.034-0.031c0.485 0.485 0.878 0.799 1.31 1.31 8.4 5.11 17.585 11.793 31.344 21.739 18.542 13.431 41.736 30.624 64.602 47.973s45.405 35.171 63.96 49.886 31.58 25.186 39.010 32.615c8.054 8.882 12.983 20.725 12.983 33.72 0 3.228-0.304 6.385-0.885 9.444l0.050-0.314c-2.677 17.691-8.051 33.625-15.739 48.147l0.394-0.816c-22.096 41.477-48.713 77.075-79.909 108.070l-0.666 0.666c-30.489 31.686-65.699 58.535-104.561 79.481l-2.248 1.108c-13.915 7.355-30.098 12.726-47.216 15.209l-0.809 0.096c-2.88 0.426-6.205 0.669-9.586 0.669-0.675 0-1.348-0.010-2.018-0.029l0.099 0.002zM364.444 918.382c1.25 0.18 2.693 0.283 4.16 0.283s2.911-0.103 4.323-0.302l-0.162 0.019c12.713-2.185 24.098-6.2 34.494-11.811l-0.594 0.293c37.121-19.861 68.944-43.932 96.497-72.187l0.079-0.081c28.172-28.306 52.235-60.736 71.196-96.299l1.072-2.202c5.373-9.785 9.579-21.132 12.015-33.121l0.132-0.779c0.957-7.862-1.035-9.356-0.642-8.95-2.804-2.804-17.585-15.030-35.813-29.418s-40.622-32.065-63.318-49.244-45.169-34.214-63.318-47.331c-1.035-0.721-1.206-0.799-1.913-1.31-1.206 3.604-3.512 7.194-5.11 10.876v1.31c-0.079 0.157 0.079 0.485 0 0.642-0.52 1.466-1.166 2.734-1.952 3.901l0.039-0.061c-0.452 1.050-0.891 1.91-1.375 2.741l0.065-0.12-0.642 0.642c-0.328 0.642-0.328 1.31-0.642 1.913-18.777 33.327-41.087 61.94-67.016 86.808l-0.129 0.123c-25.005 26.064-53.636 48.378-85.143 66.2l-1.84 0.958c-1.035 0.563-2.162 0.721-3.197 1.31-0.642 0.485-1.31 0.878-1.913 1.31-0.406 0.236-0.878 0.393-1.31 0.642-1.664 0.897-3.597 1.569-5.643 1.911l-0.11 0.015c-3.682 1.52-7.273 3.355-10.876 4.482 13.995 19.354 25.657 36.534 48.602 67.157 17.114 22.866 34.371 45.575 48.602 63.96 13.995 17.992 25.906 32.222 28.828 35.171 0.76 0.314 1.641 0.516 2.562 0.563l0.019 0.001zM249.353 699.653c25.686-15.803 47.919-33.56 67.758-53.684l0.041-0.042c20.432-20.056 38.403-42.503 53.492-66.919l0.876-1.522c-4.639-3.682-9.92-7.679-16.629-12.789-4.482-3.355-10.876-8.4-15.987-12.147-0.157-0.079-0.485 0.079-0.642 0-3.667-1.505-6.7-3.923-8.909-6.977l-0.041-0.060c-10.876-7.993-20.861-15.030-32.615-23.666-21.11-15.423-42.286-30.781-58.836-42.85-1.52-1.114-1.756-0.878-3.197-1.913-0.328 0.642-0.328 1.31-0.642 1.913-10.596 18.618-23.128 34.611-37.663 48.53l-0.076 0.072c-13.645 14.322-29.215 26.633-46.337 36.565l-0.994 0.532c0.957 1.31 0.878 1.206 1.913 2.621 12.789 17.428 29.261 39.652 45.405 61.405 26.942 36.311 45.248 60.383 53.084 70.931zM139.988 521.218c10.344-6.777 19.351-14.152 27.508-22.371l0.010-0.010c8.527-8.514 16.124-17.956 22.627-28.162l0.397-0.666-5.753-3.839c-5.057-1.243-9.28-4.216-12.103-8.242l-0.044-0.066-78.623-56.347c-2.604 3.822-5.34 7.165-8.339 10.252l0.018-0.018c-3.041 2.692-6.382 5.221-9.91 7.484l-0.324 0.194c8.557 13.431 19.59 31.253 30.702 48.602 17.035 26.797 26.955 42.391 33.834 53.189zM286.45 463.653v-93.378c-0.266-1.249-0.419-2.684-0.419-4.154s0.152-2.905 0.442-4.289l-0.024 0.135v-104.254c-0.419-1.535-0.66-3.298-0.66-5.117s0.241-3.582 0.692-5.258l-0.032 0.141v-270.542h-20.494v268.629c0.040 0.393 0.063 0.849 0.063 1.31s-0.023 0.918-0.067 1.367l0.005-0.057c0.381 1.44 0.6 3.092 0.6 4.796s-0.219 3.356-0.63 4.931l0.030-0.135v104.831c0.114 0.864 0.179 1.862 0.179 2.876s-0.065 2.013-0.191 2.992l0.012-0.116v79.933c6.015 4.403 13.615 10.326 20.494 15.358zM225.045 296.723v-39.652l-140.067-218.703h-26.863zM327.373 296.723l166.93-258.355h-26.863l-140.067 218.703z" />
<glyph unicode="&#xe92e;" glyph-name="webDesign-icon" d="M196.825 960l-15.036-14.375-167.384-167.413-14.375-15.036 14.375-15.036 326.834-326.949-262.203-262.203c-2.604-2.447-4.588-5.525-5.708-8.992l-0.042-0.151-41.889-156.948c-0.416-1.56-0.655-3.351-0.655-5.197 0-11.575 9.384-20.959 20.959-20.959 1.847 0 3.637 0.239 5.343 0.687l-0.146-0.033 156.948 41.86c3.617 1.163 6.695 3.146 9.132 5.739l0.010 0.011 740.206 740.321c16.829 18.096 27.158 42.437 27.158 69.191 0 56.178-45.541 101.719-101.719 101.719-26.753 0-51.095-10.328-69.253-27.215l0.063 0.058-280.632-280.316-326.949 326.834zM196.825 900.487l34.012-34.012-26.795-26.795 30.073-30.073 26.795 26.795 32.689-32.689-47.726-47.726 30.073-30.073 47.726 47.726 32.718-32.689-26.795-26.824 30.073-30.073 26.795 26.824 32.689-32.689-47.726-47.726 30.188-30.102 47.726 47.726 32.689-32.689-26.795-26.824 26.795-26.795-110.602-110.516-311.941 311.912zM831.747 852.761l85.015-85.015-719.275-719.275-85.015 85.015zM700.329 456.496l-15.036-14.375-41.86-41.86 30.073-30.073 26.795 26.824 32.689-32.689-47.726-47.726 30.073-30.073 47.726 47.726 32.689-32.689-26.795-26.824 30.073-30.073 26.795 26.824 32.689-32.689-47.726-47.726 30.073-30.073 47.726 47.726 32.775-32.718-26.795-26.824 30.073-30.073 26.795 26.824 13.081-13.081-137.398-137.34-294.173 293.598-29.44-29.44 308.635-309.296 15.036-14.375 15.036 14.375 167.384 167.384 14.375 15.036-14.375 15.036z" />
<glyph unicode="&#xe92f;" glyph-name="whatapp-icon" horiz-adv-x="1038" d="M519.118 960c-0.939 0.006-2.050 0.010-3.162 0.010-283.556 0-513.689-228.733-515.955-511.755l-0.001-0.216c0.057-92.361 24.866-178.915 68.153-253.403l-1.297 2.417-66.070-232.423c-0.508-1.769-0.8-3.802-0.8-5.902 0-6.069 2.437-11.568 6.387-15.573l-0.003 0.003c4.112-4.177 9.827-6.764 16.146-6.764 0.020 0 0.040 0 0.060 0h-0.003c1.918 0.043 3.759 0.27 5.537 0.664l-0.188-0.035 245.795 60.092c71.001-38.239 155.379-60.712 245.005-60.721h0.003c0.939-0.006 2.050-0.010 3.162-0.010 283.556 0 513.689 228.733 515.955 511.755l0.001 0.216c-2.445 283.1-232.509 511.653-515.954 511.653-0.974 0-1.948-0.003-2.921-0.008l0.15 0.001zM780.093 267.292c-20.016-31.534-51.798-54.070-89.027-61.519l-0.875-0.146c-9.345-1.651-20.104-2.594-31.083-2.594-19.065 0-37.465 2.845-54.799 8.134l1.328-0.349c-19.27 5.978-44.125 14-75.98 27.293-92.885 46.016-169.437 112.564-225.954 194.058l-1.279 1.949c-29.849 36.752-49.565 82.833-54.275 133.272l-0.075 0.991c-0.013 0.716-0.020 1.561-0.020 2.407 0 41.929 17.938 79.669 46.558 105.963l0.104 0.094c8.928 9.568 21.562 15.578 35.603 15.731h0.028c8.888 0 17.776 0 25.563-0.472s19.192 3.068 29.967-22.338 37.833-89.823 41.058-96.351c2.237-3.542 3.565-7.851 3.565-12.471 0-3.763-0.881-7.319-2.447-10.476l0.062 0.137c-3.583-8.277-8.042-15.409-13.399-21.759l0.106 0.13c-6.686-7.865-14-16.832-19.978-22.731s-13.607-13.529-5.82-26.506c20.858-34.488 45.422-64.083 73.742-89.591l0.351-0.311c30.446-26.47 65.891-48.218 104.576-63.554l2.472-0.864c13.293-6.528 21.079-5.427 28.866 3.225s33.192 37.911 42.080 50.968 17.697 10.776 29.967 6.45 77.71-35.63 91.003-42.159 22.181-9.753 25.563-15.102c0.961-5.354 1.511-11.517 1.511-17.809 0-15.839-3.484-30.865-9.727-44.353l0.272 0.654z" />
<glyph unicode="&#xe930;" glyph-name="bussiness" horiz-adv-x="1113" d="M556.665 960c-1.443 0.032-3.144 0.051-4.848 0.051-50.974 0-98.105-16.452-136.373-44.335l0.662 0.46c-29.252-21.293-50.103-52.595-57.567-88.788l-0.163-0.944h-291.46c-36.797-0.212-66.568-29.992-66.766-66.772v-374.283c-0.083-0.626-0.13-1.349-0.13-2.083s0.047-1.458 0.139-2.167l-0.009 0.084v-378.456c0.17-36.82 29.951-66.628 66.745-66.841h979.518c36.808 0.198 66.592 29.983 66.791 66.772v756.956c-0.198 36.808-29.983 66.592-66.772 66.791h-291.504c-7.626 37.137-28.478 68.439-57.312 89.442l-0.418 0.29c-37.606 27.423-84.737 43.875-135.71 43.875-1.696 0-3.388-0.018-5.076-0.054l0.252 0.004zM556.665 915.473c1.281 0.031 2.789 0.049 4.302 0.049 40.915 0 78.782-13.053 109.663-35.222l-0.563 0.385c18.588-13.126 32.506-31.771 39.455-53.53l0.203-0.736h-306.118c7.15 22.496 21.068 41.142 39.332 54.047l0.326 0.219c30.317 21.784 68.184 34.838 109.099 34.838 1.513 0 3.021-0.018 4.525-0.053l-0.223 0.004zM66.916 781.791h979.498c0.121 0.002 0.263 0.004 0.405 0.004 12.074 0 21.862-9.788 21.862-21.862 0-0.143-0.001-0.285-0.004-0.427v0.021-374.139c-0.042-0.418-0.065-0.903-0.065-1.393s0.024-0.975 0.070-1.454l-0.005 0.061v-1.38c0.002-0.121 0.004-0.263 0.004-0.405 0-12.074-9.788-21.862-21.862-21.862-0.143 0-0.285 0.001-0.427 0.004h-378.435c-0.198 36.808-29.983 66.592-66.772 66.791h-88.998c-36.808-0.198-66.592-29.983-66.791-66.772v-0.019h-378.481c-0.121-0.002-0.263-0.004-0.405-0.004-12.074 0-21.862 9.788-21.862 21.862 0 0.143 0.001 0.285 0.004 0.427v-0.021c0.083 0.626 0.13 1.349 0.13 2.083s-0.047 1.458-0.139 2.167l0.009-0.084v374.264c-0.001 0.083-0.002 0.181-0.002 0.28 0 12.074 9.788 21.862 21.862 21.862 0.142 0 0.283-0.001 0.425-0.004h-0.021zM512.188 381.222h89.054c0.121 0.002 0.263 0.004 0.405 0.004 12.074 0 21.862-9.788 21.862-21.862 0-0.143-0.001-0.285-0.004-0.427v0.021-22.264c-0.083-0.73-0.13-1.577-0.13-2.435s0.047-1.704 0.139-2.537l-0.009 0.103v-17.394c0.002-0.121 0.004-0.263 0.004-0.405 0-12.074-9.788-21.862-21.862-21.862-0.143 0-0.285 0.001-0.427 0.004h-89.033c-0.121-0.002-0.263-0.004-0.405-0.004-12.074 0-21.862 9.788-21.862 21.862 0 0.143 0.001 0.285 0.004 0.427v-0.021 18.072c0.29 1.358 0.456 2.919 0.456 4.518s-0.166 3.16-0.482 4.665l0.026-0.147v17.394c-0.003 0.128-0.004 0.279-0.004 0.43 0 12.074 9.788 21.862 21.862 21.862 0.143 0 0.285-0.001 0.427-0.004h-0.021zM44.653 318.598c6.604-2.55 14.242-4.070 22.223-4.166h378.472c0.199-36.825 30.012-66.621 66.825-66.791h89.070c36.808 0.198 66.592 29.983 66.791 66.772v0.019h378.381c8.022 0.096 15.66 1.616 22.713 4.318l-0.45-0.151v-315.832c0.002-0.121 0.004-0.263 0.004-0.405 0-12.074-9.788-21.862-21.862-21.862-0.143 0-0.285 0.001-0.427 0.004h-979.477c-0.121-0.002-0.263-0.004-0.405-0.004-12.074 0-21.862 9.788-21.862 21.862 0 0.143 0.001 0.285 0.004 0.427v-0.021z" />
<glyph unicode="&#xe931;" glyph-name="bussiness2" horiz-adv-x="1026" d="M248.116 960c-22.564-0.159-40.813-18.408-40.972-40.957v-409.714c0.159-22.564 18.408-40.813 40.957-40.972h614.575c22.564 0.159 40.813 18.408 40.972 40.957v409.714c-0.159 22.564-18.408 40.813-40.957 40.972h-0.015zM248.116 919.028h614.56v-409.699h-614.56zM463.215 878.056c-28.282 0-51.209-22.927-51.209-51.209s22.927-51.209 51.209-51.209v0h184.363c28.282 0 51.209 22.927 51.209 51.209s-22.927 51.209-51.209 51.209v0zM463.215 837.083h184.363c5.654 0 10.237-4.583 10.237-10.237s-4.583-10.237-10.237-10.237h-184.363c-5.654 0-10.237 4.583-10.237 10.237s4.583 10.237 10.237 10.237v0zM278.216 386.412c-0.789 0.009-1.721 0.014-2.654 0.014-40.499 0-78.789-9.457-112.783-26.284l1.487 0.665c-55.469-22.098-150.451-67.848-150.451-67.848-8.128-2.845-13.853-10.45-13.853-19.391 0-11.321 9.177-20.498 20.498-20.498 4.203 0 8.111 1.265 11.363 3.435l-0.075-0.047s95.618 45.938 147.862 66.577c26.955 14.171 58.897 22.487 92.781 22.487 2.040 0 4.073-0.030 6.099-0.090l-0.297 0.007c115.056 0 111.621-51.774 158.759-80.015 21.214-10.896 45.83-19.718 71.676-25.209l1.961-0.349c2.4-1.385 5.234-2.305 8.257-2.56l0.074-0.005c0.235 0 0.4 0 0.635 0 28.764-7.992 62.091-13.278 96.415-14.703l0.897-0.030c0.168 0.001 0.367 0.001 0.566 0.001 10.687 0 21.102-1.166 31.123-3.378l-0.954 0.177h1.271c6.778-1.521 12.769-3.957 18.211-7.215l-0.279 0.155c6.937-3.316 11.644-10.278 11.644-18.338 0-0.752-0.041-1.495-0.121-2.226l0.008 0.090c0.169-0.966 0.266-2.079 0.266-3.214 0-8-4.797-14.879-11.672-17.917l-0.125-0.049c-12.947-6.162-28.136-9.761-44.165-9.761-2.031 0-4.049 0.058-6.051 0.172l0.277-0.013h-119.081c-44.066 2.462-85.392 9.598-124.932 20.956l3.969-0.975c-1.727 0.521-3.711 0.82-5.766 0.82-11.416 0-20.671-9.255-20.671-20.671 0-9.362 6.224-17.27 14.759-19.813l0.146-0.037c39.221-11.631 84.579-19.238 131.407-21.144l1.112-0.036h119.057c2.159-0.122 4.685-0.192 7.228-0.192 23.103 0 44.861 5.758 63.918 15.916l-0.733-0.357c5.657 3.415 10.508 7.45 14.679 12.107l0.053 0.060c1.957 0.666 3.654 1.535 5.198 2.61l-0.067-0.044 184.363 124.188c18.889 13.184 41.885 21.769 66.751 23.67l0.461 0.028c0.831 0.105 1.792 0.164 2.767 0.164 7.801 0 14.71-3.823 18.955-9.698l0.047-0.069c3.193-3.208 5.168-7.632 5.168-12.518 0-3.422-0.968-6.617-2.646-9.327l0.044 0.076c-8.36-15.087-20.061-27.398-34.159-36.237l-0.412-0.241c-24.569-17.438-295.278-197.33-327.119-215.734-18.467-13.132-39.549-24.741-61.927-33.823l-2.085-0.748c-8.061-1.935-17.317-3.044-26.832-3.044-23.236 0-44.927 6.617-63.29 18.070l0.506-0.294c-28.005 13.603-146.592 75.543-184.999 95.382-16.231 10.033-35.906 15.986-56.971 16.003h-0.005c-19.222-2.249-36.449-9.353-50.858-20.040l0.284 0.201-55.092-35.936c-5.69-3.728-9.396-10.074-9.396-17.286 0-11.376 9.222-20.598 20.598-20.598 4.164 0 8.040 1.236 11.28 3.361l-0.078-0.048 55.045 35.842c8.356 6.666 18.537 11.405 29.674 13.379l0.402 0.059c13.619-0.677 26.131-4.882 36.802-11.712l-0.301 0.18c38.078-19.674 154.828-81.050 185.658-96.018 23.114-13.292 50.823-21.133 80.364-21.133 13.505 0 26.627 1.639 39.178 4.728l-1.121-0.233c28.095 10.156 52.422 23.128 74.508 39.020l-0.895-0.613c42.643 24.734 299.514 195.801 330.32 217.664 20.942 13.332 37.544 31.784 48.298 53.633l0.346 0.777c3.125 7.2 4.943 15.585 4.943 24.395 0 14.227-4.74 27.346-12.728 37.865l0.113-0.155c-12.678 15.67-31.906 25.605-53.455 25.605-0.112 0-0.224 0-0.337-0.001h0.017c-22.138-1.146-42.679-6.932-61.013-16.396l0.837 0.393c-0.871 4.165 1.2 8.802-0.635 12.802-8.149 15.142-22.734 25.918-39.995 28.716l-0.318 0.043c-4.374 0.536-9.437 0.842-14.571 0.842-21.851 0-42.408-5.54-60.342-15.293l0.665 0.331c-1.412 6.086-3.854 11.442-7.158 16.15l0.098-0.147c-10.399 11.245-25.153 18.332-41.565 18.568h-0.043c-2.195 0.119-4.764 0.186-7.35 0.186-27.549 0-53.303-7.683-75.236-21.023l0.642 0.362c-30.594-18.239-122.375-76.014-135.719-84.51-22.891 5.593-42.728 12.609-61.614 21.334l2.074-0.859c-18.709 11.367-50.668 85.875-179.868 85.875zM732.182 344.169c0.14 0.003 0.306 0.005 0.472 0.005 4.913 0 9.432-1.686 13.011-4.511l-0.044 0.034c0.871-1.035 2.565-2.871 1.93-8.966l-101.195-69.142c-7.935 1.169-17.095 1.837-26.411 1.837-1.082 0-2.161-0.009-3.239-0.027l0.162 0.002c-15.117 0.549-29.439 2.152-43.412 4.75l1.805-0.279c35.607 22.404 79.709 49.844 99.218 61.447 16.669 9.246 36.533 14.733 57.669 14.85h0.035zM837.166 324.966c2.018 0.29 4.349 0.455 6.719 0.455s4.7-0.165 6.982-0.485l-0.263 0.030c8.472-1.671 9.413-3.436 10.873-6.401 0.721-2.652 1.136-5.697 1.136-8.839 0-2.082-0.182-4.121-0.531-6.103l0.031 0.21-144.756-97.312c-3.708 15.261-12.378 28.095-24.17 37.018l-0.164 0.119 84.51 58.246c2.528 1.296 4.658 3.020 6.374 5.097l0.027 0.034c15.234 9.317 33.252 15.697 52.542 17.878l0.597 0.055z" />
<glyph unicode="&#xe932;" glyph-name="bussiness3" horiz-adv-x="1071" d="M535.635 960c-0.126 0-0.275 0-0.424 0-154.025 0-278.886-124.862-278.886-278.886 0-83.524 36.717-158.472 94.891-209.584l0.313-0.27h-60.264c-0.288 0.009-0.626 0.013-0.966 0.013-19.284 0-34.918-15.633-34.918-34.918s15.633-34.918 34.918-34.918c0.34 0 0.678 0.005 1.016 0.014l-0.050-0.001h488.739c18.864 0.539 33.951 15.96 33.951 34.904s-15.087 34.366-33.902 34.903l-0.050 0.001h-60.397c58.487 51.382 95.204 126.33 95.204 209.853 0 154.025-124.862 278.886-278.886 278.886-0.102 0-0.204 0-0.306 0h0.016zM535.635 913.452c128.465 0 232.606-104.141 232.606-232.606s-104.141-232.606-232.606-232.606c-128.465 0-232.606 104.141-232.606 232.606v0c0 0.071 0 0.156 0 0.241 0 128.332 104.033 232.365 232.365 232.365 0.085 0 0.169 0 0.254 0h-0.013zM512.374 866.904v-49.088c-7.762-1.456-14.594-3.473-21.119-6.093l0.746 0.265c-29.131-12.020-49.294-40.13-49.462-72.969v-0.021c0.038-25.095 12.759-47.211 32.094-60.287l0.257-0.164c15.683-9.426 33.882-16.809 53.229-21.156l1.233-0.233c15.582-3.652 29.314-9.058 41.985-16.137l-0.811 0.416c7.159-3.714 11.965-11.070 11.965-19.548 0-1.35-0.122-2.671-0.355-3.954l0.020 0.134v-0.642c-0.28-5.178-1.937-9.918-4.609-13.924l0.064 0.101c-4.625-7.272-12.192-16.042-42.003-16.042-27.993 0-34.998 10.187-40.719 21.817-3.379 7.106-5.492 15.405-5.825 24.16l-0.004 0.117-46.548 0.909c0.097-16.55 3.975-32.171 10.811-46.074l-0.277 0.623c12.064-22.846 33.31-39.471 58.694-45.077l0.581-0.108v-49.355h46.548v48.687c24.089 3.55 44.575 16.667 57.812 35.294l0.179 0.265c7.177 11.278 11.52 24.975 11.737 39.672l0.001 0.058c-0.021 25.306-12.515 47.69-31.666 61.337l-0.23 0.156c-15.762 9.799-34.080 17.425-53.611 21.855l-1.199 0.229c-15.746 3.698-29.6 8.981-42.493 15.831l0.945-0.458c-6.901 3.182-11.605 10.040-11.605 17.997 0 1.256 0.117 2.484 0.341 3.675l-0.019-0.123c-0.217 1.266-0.341 2.725-0.341 4.212 0 12.522 8.793 22.99 20.541 25.567l0.173 0.032c7.455 2.913 16.080 4.698 25.092 4.918l0.093 0.002c9.287-1.023 17.749-3.695 25.384-7.725l-0.385 0.185c13.529-5.79 22.836-18.989 22.836-34.362 0-1.581-0.098-3.139-0.29-4.668l0.019 0.182h46.521c0.003 0.258 0.004 0.562 0.004 0.867 0 34.029-18.915 63.641-46.805 78.894l-0.469 0.235c-6.447 3.452-13.939 6.43-21.786 8.543l-0.753 0.173v50.799zM70.156 773.808c-38.446-0.241-69.544-31.358-69.755-69.788v-508.010c-0.216-1.133-0.34-2.437-0.34-3.77s0.124-2.636 0.36-3.9l-0.020 0.131v-42.778c0.211-38.469 31.34-69.597 69.788-69.808h321.631l-15.534-93.096h-50.104c-0.235 0.009-0.512 0.013-0.789 0.013-12.861 0-23.287-10.426-23.287-23.287s10.426-23.287 23.287-23.287c0.277 0 0.554 0.005 0.829 0.014l-0.040-0.001h418.904c0.235-0.009 0.512-0.013 0.789-0.013 12.861 0 23.287 10.426 23.287 23.287s-10.426 23.287-23.287 23.287c-0.277 0-0.554-0.005-0.829-0.014l0.040 0.001h-50.104l-15.48 92.828h321.638c38.469 0.211 69.597 31.34 69.808 69.788v42.691c0.216 1.133 0.34 2.437 0.34 3.77s-0.124 2.636-0.36 3.9l0.020-0.131v508.364c-0.211 38.469-31.34 69.597-69.788 69.808h-153.433c3.997-12.935 7.517-28.663 9.867-44.771l0.213-1.777h143.28c0.12 0.002 0.262 0.004 0.405 0.004 12.625 0 22.86-10.235 22.86-22.86 0-0.142-0.001-0.284-0.004-0.426v0.021-488.739h-977.452v488.739c-0.002 0.12-0.004 0.262-0.004 0.405 0 12.625 10.235 22.86 22.86 22.86 0.142 0 0.284-0.001 0.426-0.004h143.259c2.562 17.883 6.081 33.611 10.681 48.872l-0.602-2.324zM46.895 168.606h977.506v-23.261c0.002-0.12 0.004-0.262 0.004-0.405 0-12.625-10.235-22.86-22.86-22.86-0.142 0-0.284 0.001-0.426 0.004h-930.963c-0.12-0.002-0.262-0.004-0.405-0.004-12.625 0-22.86 10.235-22.86 22.86 0 0.142 0.001 0.284 0.004 0.426v-0.021zM438.876 75.617h193.277l15.534-93.096h-224.237z" />
<glyph unicode="&#xe933;" glyph-name="bussiness4" d="M938.663 960c-0.007 0-0.016 0-0.025 0-23.552 0-42.644-19.092-42.644-42.644 0-0.009 0-0.017 0-0.026v0.001c0.075-6.308 1.541-12.257 4.103-17.577l-0.108 0.249-170.675-238.66c-1.323 0-2.671 0-3.995 0-0.108 0.001-0.236 0.002-0.365 0.002-8.522 0-16.463-2.485-23.138-6.77l0.171 0.103-147.343 73.328c-1.556 22.318-20.043 39.833-42.62 39.833-23.517 0-42.596-19.004-42.717-42.493v-0.011c0.055-2.396 0.294-4.695 0.702-6.935l-0.041 0.268-155.994-124.011c-4.431 1.69-9.556 2.668-14.909 2.668-21.273 0-38.937-15.453-42.38-35.746l-0.036-0.253-145.333-58.673c-7.052 5.723-16.108 9.227-25.979 9.337h-0.024c-0.035 0-0.077 0-0.118 0-23.565 0-42.669-19.103-42.669-42.669s19.103-42.669 42.669-42.669c21.456 0 39.213 15.836 42.22 36.458l0.028 0.231 145.333 58.011c7.052-5.723 16.108-9.227 25.979-9.337h0.024c0.007 0 0.016 0 0.025 0 23.552 0 42.644 19.092 42.644 42.644 0 0.009 0 0.017 0 0.026v-0.001c-0.056 2.397-0.295 4.696-0.702 6.936l0.041-0.27 155.994 124.011c4.403-1.694 9.497-2.675 14.821-2.675 0.183 0 0.366 0.001 0.549 0.003h-0.028c0.106-0.001 0.232-0.001 0.358-0.001 8.524 0 16.467 2.485 23.145 6.77l-0.171-0.103 147.343-73.328c1.556-22.318 20.043-39.833 42.62-39.833 23.517 0 42.596 19.004 42.717 42.493v0.011c-0.075 6.308-1.541 12.257-4.103 17.577l0.108-0.249 170.675 238.66c1.323 0 2.671 0 3.995 0 23.090 0.611 41.575 19.474 41.575 42.655 0 23.233-18.568 42.128-41.673 42.657l-0.049 0.001zM853.325 682.666v-746.666h170.675v746.666zM895.994 639.997h85.337v-661.328h-85.337zM426.663 490.669v-554.669h170.675v554.669zM469.331 448h85.337v-469.331h-85.337zM640.006 384.058v-448.009h170.675v448.009zM682.675 341.389h85.337v-362.721h-85.337zM213.344 320.067v-384.067h170.675v383.994zM256.012 277.399h85.337v-298.73h-85.337zM0 234.558v-298.558h170.675v298.558zM42.669 191.89h85.337v-213.221h-85.337z" />
<glyph unicode="&#xe934;" glyph-name="news" horiz-adv-x="1122" d="M73.171 960c-40.322-0.221-72.949-32.849-73.171-73.15v-877.758c0.221-40.322 32.849-72.949 73.15-73.171h975.267c40.322 0.221 72.949 32.849 73.171 73.15v780.249c-0.221 40.322-32.849 72.949-73.15 73.171h-658.324c2.12 0-0.785 0-6.752 6.83-7.014 8.852-13.93 18.794-20.225 29.156l-0.737 1.306c-8.238 13.9-16.741 25.879-26.112 37.109l0.361-0.445c-10.267 13.566-26.015 22.52-43.886 23.546l-0.158 0.007zM73.171 911.246h219.827c-1.492 0 1.492 0 7.851-7.066 7.175-8.865 14.119-18.76 20.374-29.116l0.666-1.189c8.141-13.885 16.544-25.84 25.812-37.053l-0.375 0.468c10.022-13.589 25.617-22.569 43.346-23.546l0.148-0.007h658.303c0.094 0.001 0.205 0.002 0.316 0.002 13.311 0 24.102-10.791 24.102-24.102 0-0.111-0.001-0.222-0.002-0.333v0.017-53.308c-7.243 2.794-15.621 4.455-24.375 4.553h-975.994c-8.795-0.098-17.173-1.76-24.909-4.719l0.493 0.166v150.817c-0.001 0.094-0.002 0.205-0.002 0.316 0 13.311 10.791 24.102 24.102 24.102 0.111 0 0.222-0.001 0.333-0.002h-0.017zM73.171 691.419h975.246c0.142 0.003 0.308 0.005 0.476 0.005 13.225 0 23.945-10.721 23.945-23.945 0-0.167-0.002-0.334-0.005-0.501v0.025-658.303c0.001-0.094 0.002-0.205 0.002-0.316 0-13.311-10.791-24.102-24.102-24.102-0.111 0-0.222 0.001-0.333 0.002h-975.229c-0.094-0.001-0.205-0.002-0.316-0.002-13.311 0-24.102 10.791-24.102 24.102 0 0.111 0.001 0.222 0.002 0.333v-0.017 658.695c-0.003 0.142-0.005 0.308-0.005 0.476 0 13.225 10.721 23.945 23.945 23.945 0.167 0 0.334-0.002 0.501-0.005h-0.025z" />
<glyph unicode="&#xe935;" glyph-name="calender" horiz-adv-x="981" d="M213.317 960c-23.49-0.179-42.484-19.173-42.663-42.646v-42.68h-127.99c-0.313 0.008-0.681 0.013-1.050 0.013-22.99 0-41.627-18.637-41.627-41.627 0-0.369 0.005-0.737 0.014-1.104l-0.001 0.054v-853.267c-0.011-0.362-0.018-0.787-0.018-1.214 0-22.902 18.565-41.467 41.467-41.467 0.427 0 0.852 0.006 1.276 0.019l-0.062-0.001h896.010c0.411-0.015 0.894-0.023 1.379-0.023 22.814 0 41.308 18.494 41.308 41.308 0 0.485-0.008 0.968-0.025 1.449l0.002-0.070v853.267c0.011 0.362 0.018 0.787 0.018 1.214 0 22.902-18.565 41.467-41.467 41.467-0.427 0-0.852-0.006-1.276-0.019l0.062 0.001h-127.99v42.663c-0.179 23.49-19.173 42.484-42.646 42.663h-42.361c-23.49-0.179-42.484-19.173-42.663-42.646v-42.68h-384.369v42.663c-0.179 23.49-19.173 42.484-42.646 42.663h-0.017zM213.317 917.337h42.663v-127.99h-42.663zM725.277 917.337h42.663v-127.99h-42.265zM42.663 832.010h127.99v-42.663c0.179-23.49 19.173-42.484 42.646-42.663h42.68c23.49 0.179 42.484 19.173 42.663 42.646v42.68h383.97v-42.663c0.179-23.49 19.173-42.484 42.646-42.663h42.68c23.49 0.179 42.484 19.173 42.663 42.646v42.68h127.99v-149.362h-895.93zM42.663 639.985h896.010v-661.322h-896.010zM170.653 554.658v-490.668h640.030v490.668zM213.317 511.995h106.698v-106.698h-106.698zM362.678 511.995h106.618v-106.698h-106.618zM512.040 511.995h106.618v-106.698h-106.698zM661.401 511.995h106.698v-106.698h-106.778zM213.317 362.633h106.698v-106.618h-106.698zM362.678 362.633h106.618v-106.618h-106.618zM512.040 362.633h106.618v-106.618h-106.698zM661.401 362.633h106.698v-106.618h-106.778zM213.317 213.352h106.698v-106.618h-106.698zM362.678 213.352h106.618v-106.618h-106.618zM512.040 213.352h106.618v-106.618h-106.698zM661.401 213.352h106.698v-106.618h-106.778z" />
<glyph unicode="&#xe936;" glyph-name="arrow-light" horiz-adv-x="1366" d="M723.826 960v-306.526h-723.826v-410.851h723.826v-306.334l83.441 65.829 558.58 445.883-49.756 40.132-508.824 406.039zM826.514 746.538l375.338-298.346-375.338-298.346v195.465h-723.826v205.474h723.826z" />
<glyph unicode="&#xe937;" glyph-name="screen" horiz-adv-x="1122" d="M73.139 960c-40.302-0.226-72.913-32.837-73.139-73.117v-682.573c0.226-40.302 32.837-72.913 73.117-73.139h365.851v-73.139h-48.866c-40.302-0.226-72.913-32.837-73.139-73.117v-48.781h487.594v48.626c-0.226 40.302-32.837 72.913-73.117 73.139h-48.781v73.166h365.829c40.294 0.287 72.867 32.935 73.032 73.23v682.567c-0.226 40.302-32.837 72.913-73.117 73.139h-0.022zM73.139 911.241h975.241c0.104 0.002 0.227 0.003 0.35 0.003 13.273 0 24.033-10.76 24.033-24.033 0-0.123-0.001-0.246-0.003-0.368v0.019-682.551c0.002-0.104 0.003-0.227 0.003-0.35 0-13.273-10.76-24.033-24.033-24.033-0.123 0-0.246 0.001-0.368 0.003h-975.222c-0.104-0.002-0.227-0.003-0.35-0.003-13.273 0-24.033 10.76-24.033 24.033 0 0.123 0.001 0.246 0.003 0.368v-0.019 682.551c-0.014 0.319-0.022 0.693-0.022 1.070 0 3.17 0.566 6.208 1.602 9.018l-0.058-0.181c3.868 8.601 12.361 14.481 22.228 14.481 0.222 0 0.442-0.003 0.663-0.009l-0.032 0.001zM170.658 765.069c-26.887-0.196-48.624-21.97-48.759-48.853v-316.976c0.195-26.85 21.909-48.564 48.741-48.759h146.324c26.896 0.135 48.67 21.872 48.866 48.741v316.982c-0.136 26.933-21.933 48.73-48.853 48.866h-0.013zM512 765.069c-26.85-0.195-48.564-21.909-48.759-48.741v-317.088c0.195-26.85 21.909-48.564 48.741-48.759h438.88c26.85 0.195 48.564 21.909 48.759 48.741v316.982c-0.135 26.896-21.872 48.67-48.741 48.866h-0.019zM170.658 716.203h146.305v-316.963h-146.305zM512 716.203h438.861v-316.963h-438.861zM243.797 472.38c-13.465 0-24.38-10.915-24.38-24.38s10.915-24.38 24.38-24.38c13.465 0 24.38 10.915 24.38 24.38v0c-0.030 13.452-10.927 24.349-24.377 24.38h-0.003zM731.417 472.38c-13.465 0-24.38-10.915-24.38-24.38s10.915-24.38 24.38-24.38c13.465 0 24.38 10.915 24.38 24.38v0c-0.030 13.452-10.927 24.349-24.377 24.38h-0.003zM560.759 252.963c-13.465 0-24.38-10.915-24.38-24.38s10.915-24.38 24.38-24.38c13.465 0 24.38 10.915 24.38 24.38v0c-0.030 13.452-10.927 24.349-24.377 24.38h-0.003zM487.62 131.064h146.278v-73.139h-146.278zM390.102 9.166h341.316c0.104 0.002 0.227 0.003 0.35 0.003 13.273 0 24.033-10.76 24.033-24.033 0-0.123-0.001-0.246-0.003-0.368v0.019h-389.968c-0.001 0.096-0.002 0.209-0.002 0.322 0 13.273 10.76 24.033 24.033 24.033 0.085 0 0.17 0 0.255-0.001h-0.013z" />
<glyph unicode="&#xe938;" glyph-name="file" horiz-adv-x="801" d="M0 960v-1024h801.391v743.647l-6.255 6.945-267.13 267.13-6.968 6.278zM44.522 915.478h445.217v-178.087h-311.652v-44.522h311.652v-44.522h267.13v-667.826h-712.348zM534.261 883.467l190.62-190.598h-190.62zM178.087 514.783v-44.522h66.783v44.522zM333.913 514.783v-44.522h289.391v44.522zM178.087 381.217v-44.522h66.783v44.522zM333.913 381.217v-44.522h289.391v44.522zM178.087 247.652v-44.522h66.783v44.522zM333.913 247.652v-44.522h289.391v44.522z" />
<glyph unicode="&#xe939;" glyph-name="head-set-light" horiz-adv-x="1089" d="M544.684 960c-202.394-0.138-368.938-153.446-389.991-350.269l-0.15-1.724c-20.049-6.684-35.538-22.172-42.086-41.756l-0.135-0.465c-32.728-8.069-59.767-28.205-76.695-55.306l-0.306-0.525c-22.192-34.731-35.372-77.083-35.372-122.513 0-1.691 0.018-3.379 0.055-5.061l-0.004 0.251c-0.032-1.43-0.050-3.115-0.050-4.804 0-45.432 13.18-87.786 35.925-123.447l-0.553 0.928c17.227-27.659 44.278-47.822 76.167-55.723l0.858-0.18c8.561-26.676 33.149-45.645 62.167-45.645 35.985 0 65.157 29.172 65.157 65.157 0 0.086 0 0.172-0.001 0.258v-0.013 326.891c-0.282 26.996-16.898 50.042-40.421 59.747l-0.434 0.159c19.555 175.327 166.937 310.413 345.87 310.413s326.315-135.085 345.727-308.836l0.143-1.577c-23.958-9.864-40.573-32.91-40.855-59.87v-326.855c0.322-27.728 17.884-51.273 42.453-60.441l0.451-0.147c-1.040-37.049-15.886-70.441-39.55-95.385l0.060 0.064c-27.071-25.063-63.428-40.437-103.375-40.437-3.156 0-6.29 0.096-9.399 0.285l0.427-0.021h-69.442c-9.261 25.432-33.123 43.313-61.194 43.563h-109.033c-35.565-0.696-64.128-29.691-64.128-65.357s28.564-64.66 64.063-65.356l0.065-0.001h108.932c28.102 0.251 51.963 18.132 61.079 43.108l0.146 0.456h69.442c2.737-0.135 5.944-0.212 9.169-0.212 51.969 0 99.264 20.011 134.601 52.747l-0.129-0.118c31.051 32.922 50.538 77.048 51.8 125.71l0.005 0.248c19.352 6.88 34.268 21.989 40.742 41.003l0.137 0.464c32.7 8.086 59.712 28.218 76.625 55.306l0.306 0.526c22.192 34.731 35.372 77.083 35.372 122.513 0 1.691-0.018 3.379-0.055 5.061l0.004-0.251c0.032 1.432 0.050 3.119 0.050 4.81 0 45.43-13.18 87.782-35.925 123.44l0.553-0.927c-17.218 27.613-44.231 47.746-76.072 55.651l-0.858 0.18c-6.656 20.068-22.13 35.582-41.709 42.156l-0.465 0.135c-21.203 198.555-187.76 351.867-390.151 351.993h-0.013zM174.254 567.835c0.085 0.001 0.184 0.002 0.284 0.002 11.874 0 21.499-9.625 21.499-21.499 0-0.1-0.001-0.2-0.002-0.3v0.015-326.82c0-12.030-9.752-21.782-21.782-21.782s-21.782 9.752-21.782 21.782v326.82c-0.001 0.085-0.002 0.184-0.002 0.284 0 11.874 9.625 21.499 21.499 21.499 0.1 0 0.2-0.001 0.3-0.002h-0.015zM915.021 567.835c0.085 0.001 0.184 0.002 0.284 0.002 11.874 0 21.499-9.625 21.499-21.499 0-0.1-0.001-0.2-0.002-0.3v0.015-326.82c0-12.030-9.752-21.782-21.782-21.782s-21.782 9.752-21.782 21.782v0 326.82c-0.001 0.085-0.002 0.185-0.002 0.285 0 11.874 9.625 21.499 21.499 21.499 0.117 0 0.233-0.001 0.349-0.003h-0.018zM108.932 519.491v-273.696c-15.662 7.445-28.4 18.874-37.226 32.999l-0.215 0.369c-17.562 28.279-27.973 62.591-27.973 99.334 0 1.454 0.016 2.904 0.049 4.35l-0.004-0.216c-0.029 1.249-0.046 2.72-0.046 4.195 0 36.729 10.402 71.028 28.42 100.112l-0.47-0.814c9.046 14.497 21.792 25.927 36.935 33.14l0.53 0.227zM980.413 519.491c15.663-7.444 28.401-18.873 37.226-32.999l0.215-0.369c17.549-28.272 27.95-62.574 27.95-99.304 0-1.473-0.017-2.942-0.050-4.406l0.004 0.218c0.029-1.247 0.046-2.716 0.046-4.188 0-36.731-10.402-71.032-28.42-100.119l0.47 0.814c-9.041-14.493-21.779-25.923-36.912-33.14l-0.529-0.227zM501.097 23.15h108.932c12.030 0 21.782-9.752 21.782-21.782s-9.752-21.782-21.782-21.782v0h-108.932c-12.030 0-21.782 9.752-21.782 21.782s9.752 21.782 21.782 21.782v0z" />
<glyph unicode="&#xe93a;" glyph-name="play" d="M512.007 960c-0.004 0-0.009 0-0.014 0-282.774 0-512.007-229.233-512.007-512.007s229.233-512.007 512.007-512.007c282.774 0 512.007 229.233 512.007 512.007v0c-0.21 282.684-229.31 511.788-511.972 512.007h-0.021zM512.007 915.475c258.183 0 467.482-209.299 467.482-467.482s-209.299-467.482-467.482-467.482c-258.183 0-467.482 209.299-467.482 467.482v0c0 0.093 0 0.204 0 0.315 0 258.009 209.158 467.167 467.167 467.167 0.111 0 0.221 0 0.332 0h-0.017zM356.198 709.566v-523.131l33.387 19.481 411.121 242.091-32.702 19.481-378.433 222.624zM400.722 631.654l311.673-183.661-311.7-183.647z" />
<glyph unicode="&#xe93b;" glyph-name="Diagonal-arrow" d="M512-64c282.77 0 512 229.23 512 512s-229.23 512-512 512c-282.77 0-512-229.23-512-512v0c0.336-282.635 229.365-511.664 511.968-512h0.032zM512 14.769c-239.267 0-433.231 193.964-433.231 433.231s193.964 433.231 433.231 433.231c239.267 0 433.231-193.964 433.231-433.231v0c0-0.164 0-0.358 0-0.552 0-238.962-193.717-432.679-432.679-432.679-0.194 0-0.388 0-0.581 0h0.030zM708.923 251.077v354.462h-78.769v-219.077l-286.779 286.779-56.615-56.615 286.779-286.779h-219.077v-78.769z" />
<glyph unicode="&#xe93d;" glyph-name="email" horiz-adv-x="1422" d="M0 960v-1024h1422.201v1024zM56.867 903.133h1308.466v-910.201h-1308.466zM113.735 763.226v-67.078l597.107-338.555 597.301 338.555v67.078l-597.301-338.555z" />
<glyph unicode="&#xe93e;" glyph-name="password" horiz-adv-x="840" d="M419.861 960c-150.651-0.159-272.738-122.227-272.929-272.855v-121.382h-83.738c-34.797-0.063-63.004-28.191-63.194-62.953v-503.84c0.189-34.702 28.269-62.782 62.953-62.971h713.742c34.702 0.189 62.782 28.269 62.971 62.953v503.84c-0.189 34.702-28.269 62.782-62.953 62.971h-83.756v121.364c-0.191 150.705-122.373 272.81-273.090 272.873h-0.006zM419.861 918.020c0.116 0 0.254 0 0.391 0 127.303 0 230.502-103.199 230.502-230.502 0-0.137 0-0.275 0-0.412v0.021-121.364h-461.841v121.364c0 0.116 0 0.254 0 0.391 0 127.303 103.199 230.502 230.502 230.502 0.157 0 0.314 0 0.471 0h-0.024zM62.971 523.783h713.724c0.084 0.001 0.182 0.002 0.281 0.002 11.438 0 20.711-9.273 20.711-20.711 0-0.099-0.001-0.197-0.002-0.296v0.015-503.822c0.001-0.084 0.002-0.182 0.002-0.281 0-11.438-9.273-20.711-20.711-20.711-0.099 0-0.197 0.001-0.296 0.002h-713.709c-0.084-0.001-0.182-0.002-0.281-0.002-11.438 0-20.711 9.273-20.711 20.711 0 0.099 0.001 0.197 0.002 0.296v-0.015 503.822c-0.001 0.084-0.002 0.182-0.002 0.281 0 11.438 9.273 20.711 20.711 20.711 0.099 0 0.197-0.001 0.296-0.002h-0.015zM167.922 292.89c-23.185 0-41.98-18.795-41.98-41.98s18.795-41.98 41.98-41.98c23.185 0 41.98 18.795 41.98 41.98v0c0 23.185-18.795 41.98-41.98 41.98v0zM335.844 292.89c-23.185 0-41.98-18.795-41.98-41.98s18.795-41.98 41.98-41.98c23.185 0 41.98 18.795 41.98 41.98v0c0 23.185-18.795 41.98-41.98 41.98v0zM503.766 292.89c-23.185 0-41.98-18.795-41.98-41.98s18.795-41.98 41.98-41.98c23.185 0 41.98 18.795 41.98 41.98v0c0 0 0 0 0 0 0 23.166-18.763 41.949-41.922 41.98h-0.003zM671.688 292.89c-23.185 0-41.98-18.795-41.98-41.98s18.795-41.98 41.98-41.98c23.185 0 41.98 18.795 41.98 41.98v0c0 0 0 0 0 0 0 23.166-18.763 41.949-41.922 41.98h-0.003z" />
<glyph unicode="&#xe93f;" glyph-name="user-register" horiz-adv-x="931" d="M465.468 960c-179.974-0.058-325.848-145.969-325.848-325.951 0-112.152 56.642-211.075 142.88-269.722l1.135-0.728c-167.626-72.853-282.877-236.674-283.635-427.502v-0.098h93.063c3.011 203.363 168.572 367.063 372.367 367.063s369.356-163.7 372.364-366.779l0.003-0.283h93.063c-0.726 190.956-115.986 354.813-280.623 426.507l-3.012 1.169c87.308 59.383 143.901 158.269 143.901 270.374 0 179.915-145.766 325.784-325.642 325.95h-0.016zM465.468 866.937c128.536 0 232.734-104.199 232.734-232.734s-104.199-232.734-232.734-232.734c-128.536 0-232.734 104.199-232.734 232.734v0c-0.001 0.205-0.001 0.448-0.001 0.691 0 128.155 103.89 232.044 232.044 232.044 0.243 0 0.486 0 0.729-0.001h-0.038z" />
<glyph unicode="&#xe940;" glyph-name="menu-icon" horiz-adv-x="1463" d="M0 960v-146.294h1462.881v146.294zM0 521.119v-146.294h1462.881v146.294zM0 82.238v-146.294h1462.881v146.349z" />
</font>
</defs>
</svg>
